请选择 进入手机版 | 继续访问电脑版

bt天堂

 找回密码
 立即注册

[纯净版][BT下载][缉恶.Hunt.The.Wicked][WEB-MKV/3.75GB][国语中字][2160P(4K)][无水 ...

[复制链接]

wwwshouzhibacom 发表于 2024-2-13 09:49:50 | 显示全部楼层 |阅读模式
-->62e795468c3e0ad03ba838d8c37ca40e.jpg




◎译  名 Hunt The Wicked
◎片  名 缉恶
◎年  代 2024
◎产  地 中国大陆
◎类  别 剧情 / 动作 / 犯罪
◎语  言 汉语普通话
◎上映日期 2024-02-12(中国大陆网络)
◎豆瓣评分 0/10 from 0 users
◎豆瓣链接 https://movie.douban.com/subject/36402338
◎导  演 霍穗强 Suiqiang Huo
◎主  演 谢苗 Miu Tse
       安志杰 Andy On
       连凯 Andrew Lin
       洪爽 Shuang Hong
       尹聪 Cong Yin
       顾靖 Jing Gu
       李梓嘉
       韩锐 Rui Han
       梁俊一 Anson Leung
       吴靖萱 Jane Wu
       刘萨萨 Rebecca


◎简  介


  影片讲述了缉毒警察黄铭金与“神秘人”魏云周,通过完全不同的手段和方式,在相互之间的谋算与角力过程中,撕开了城市粉饰太平的面纱,揭露幕后黑手“隆王”编织的地下毒网,最终以正义之利剑铲除黑暗、终见曙光的故事。


General


Complete name                  : 缉恶.Hunt.The.Wicked.2024.2160P(4K).WEB-DL.H265.AAC-Vampire.mkv
Format                         : Matroska
Format version                 : Version 4
File size                      : 3.75 GiB
Duration                       : 1 h 43 min
Overall bit rate               : 5 200 kb/s
Frame rate                     : 25.000 FPS
Movie name                     : 缉恶.Hunt.The.Wicked.2024.2160P(4K).WEB-DL.H265.AAC-Vampire / 缉恶.Hunt.The.Wicked
Recorded date                  : 2024
Encoded date                   : 2024-02-12 04:01:54 UTC
Writing application            : mkvmerge v55.0.0 ('Waiting For Space') 64-bit
Writing library                : libebml v1.4.2 + libmatroska v1.6.4
Cover                          : Yes
Comment                        : 警告:严禁将本人制作的任何作品用于商业性质活动,所有制作作品仅限于测试宽带之用,请于下载后24小时内删除。本人不承担任何法律后果!喜欢本作品请购买正版!!!
ARTIST                         : Vampire制作分享作品
GENRE                          : 中国大陆


Video
ID                             : 1
Format                         : HEVC
Format/Info                    : High Efficiency Video Coding
Format profile                 : Main@L5@Main
Codec ID                       : V_MPEGH/ISO/HEVC
Duration                       : 1 h 43 min
Bit rate                       : 5 007 kb/s
Width                          : 3 840 pixels
Height                         : 1 448 pixels
Display aspect ratio           : 2.652
Frame rate mode                : Constant
Frame rate                     : 25.000 FPS
Color space                    : YUV
Chroma subsampling             : 4:2:0
Bit depth                      : 8 bits
Bits/(Pixel*Frame)             : 0.036
Stream size                    : 3.61 GiB (96%)
Title                          : Vampire制作分享作品
Language                       : Chinese (CH)
Default                        : Yes
Forced                         : No


Audio
ID                             : 2
Format                         : AAC LC
Format/Info                    : Advanced Audio Codec Low Complexity
Codec ID                       : A_AAC-2
Duration                       : 1 h 43 min
Bit rate                       : 192 kb/s
Channel(s)                     : 2 channels
Channel layout                 : L R
Sampling rate                  : 44.1 kHz
Frame rate                     : 43.066 FPS (1024 SPF)
Compression mode               : Lossy
Stream size                    : 140 MiB (4%)
Title                          : 汉语普通话
Language                       : Chinese
Default                        : No
Forced                         : No


Text
ID                             : 3
Format                         : UTF-8
Codec ID                       : S_TEXT/UTF8
Codec ID/Info                  : UTF-8 Plain Text
Duration                       : 5 s 775 ms
Bit rate                       : 234 b/s
Frame rate                     : 0.173 FPS
Count of elements              : 1
Stream size                    : 169 Bytes (0%)
Title                          : 版权免责声明
Language                       : Chinese
Default                        : Yes
Forced                         : No
54fc1c5e072e8be45d754a8b9739fb13.jpg


本人发布的种子请使用专业BT下载工具:
UT,Bitcomet,qBittorrent,Xdown开启上传后再下载!!!
使用迅雷或网盘离线可能会没速度!!!


视频的网盘资源均修改了视频后缀(如mp4或mkv)修改为.PDF,用以混淆官方视听!
并且加密了文件名,设置了独有的解压密码,请使用WinRAR解压,使用好压或其他可能会出错!!

网盘版所有压缩包下载完毕后解压第一个包即可全部解压(有些可能有解压密码),解压后自行将后缀名“PDF”修改为“mp4或者mkv”后即可正常播放!!!

已完结剧集不再分集打包上传,整体打包后分卷,无法单独下载某一集,需要全部下载后一起解压,敬请知晓!!!
请各位下载的坛友先保存至自己的网盘,然后再进行下载!
不要直接在线观看或者解压,否则会很快被网盘官方发觉并和谐!!

网盘版资源一旦和谐,皆不会免费补档,请谨慎举报资源!!!


请下载完成的朋友自觉做种一段时间,小水管出种不易,且下且珍惜,谢谢!!!
                                                                                                                                                                                                        
                                                                                                                                                                                                                                                                                                                                                                                                                                                                                                                                                                                                                                                                                                                                                                                                                                                        
1858af8bc1ed34935a3abf52045128ca.rar (991.61 KB, 下载次数: 0)

回复

使用道具 举报

您需要登录后才可以回帖 登录 | 立即注册

本版积分规则

bt天堂

本网站所有资源来自网络,如无意中侵犯了您的权益,请发邮件至 [email protected],立即清除相关链接

GMT+8, 2024-3-2 17:30 , Processed in 0.060880 second(s), 33 queries .

Powered by Discuz! X3.2

© 2001-2013 Comsenz Inc.

快速回复 返回顶部 返回列表