请选择 进入手机版 | 继续访问电脑版

bt天堂

 找回密码
 立即注册

[BT下载]海底总动员2:多莉去哪儿 2016.1080p.3D.BluRay.Half-OU.x264.DTS-HD.MA.7.1-F ...

[复制链接]

电影天堂 发表于 2016-12-7 16:22:37 | 显示全部楼层 |阅读模式
3D上下

译  名 海底总动员2:多莉去哪儿/海底总动员2:寻找多莉/寻找多莉/海底奇兵2(港)
片  名 Finding Dory
年  代 2016
国  家 美国
类  别 喜剧/动画/冒险/家庭
语  言 英语
上映日期 2016-06-17(中国大陆/美国)
片  长 97分钟
导  演 安德鲁·斯坦顿 Andrew Stanton / 安格斯·麦克莱恩 Angus MacLane
主  演 艾伦·德杰尼勒斯 Ellen DeGeneres
      艾伯特·布鲁克斯 Albert Brooks
      艾德·奥尼尔 Ed O'Neill
      凯特琳·奥尔森 Kaitlin Olson
      海登·罗兰斯 Hayden Rolence
      泰·布利尔 Ty Burrell
      黛安·基顿 Diane Keaton
      尤金·列维 Eugene Levy
      斯隆·穆雷 Sloane Murray
      伊德里斯·艾尔巴 Idris Elba
      多米尼克·威斯特 Dominic West
      鲍勃·彼德森 Bob Peterson
      凯特·麦克金农 Kate McKinnon
      比尔·哈德尔 Bill Hader
      西格妮·韦弗 Sigourney Weaver


简  介


  大家最喜爱的、健忘的多莉(艾伦·德杰尼勒斯 Ellen DeGeneres 配音)回来了!这次她将与好朋友尼莫(海登·罗兰斯 Hayden Rolence 配音)与马林(艾伯特·布鲁克斯 Albert Brooks 配音)一起,寻找她的神秘过去和她遗失的家庭。她能记起来什么?她的父母是谁?还有,她是从哪儿学会了说鲸语?多莉与马林、尼莫一起开启了这场改变“鱼”生的大冒险,穿越大洋至加州著名的海洋生物研究所。 在这里,多莉获得了三位有趣居民的鼎力支持:一只脾气暴躁、经常让研究所雇员找得团团转的章鱼汉克(艾德·奥尼尔 Ed O'Neill 配音);一头坚信自己的生物声呐技能出问题了的白鲸贝利(泰·布利尔 Ty Burrell 配音);以及一头严重近视眼的鲸鲨运儿(凯特琳·奥尔森 Kaitlin Olson 配音)。当多莉和朋友们在研究所错综复杂的内部水道中辗转前行时,她也逐渐对友谊、亲情和家庭的奥义有了更深刻的认识……


Video
ID                                       : 1
Format                                   : AVC
Format/Info                              : Advanced Video Codec
Format settings, CABAC                   : Yes
Format settings, ReFrames                : 2 frames
Codec ID                                 : V_MPEG4/ISO/AVC
Duration                                 : 1h 37mn
Nominal bit rate                         : 16.0 Mbps
Width                                    : 1 920 pixels
Height                                   : 1 080 pixels
Display aspect ratio                     : 16:9
Frame rate mode                          : Constant
Frame rate                               : 23.976 (24000/1001) fps
Color space                              : YUV
Chroma subsampling                       : 4:2:0
Bit depth                                : 8 bits
Scan type                                : Progressive
Bits/(Pixel*Frame)                       : 0.322
Title                                    : Finding.Dory.2016.1080p.3D.BluRay.Half-OU.x264.DTS-HD.MA.7.1-FGT
Writing library                          : x264 core 142
Encoding settings                        : cabac=1 / ref=1 / deblock=1:-1:-1 / analyse=0x3:0 / me=hex / subme=5 / psy=0 / mixed_ref=0 / me_range=16 / chroma_me=1 / trellis=0 / 8x8dct=1 / cqm=0 / deadzone=21,11 / fast_pskip=0 / chroma_qp_offset=0 / threads=8 / lookahead_threads=2 / sliced_threads=0 / nr=0 / decimate=1 / interlaced=0 / bluray_compat=0 / constrained_intra=0 / bframes=2 / b_pyramid=0 / b_adapt=1 / b_bias=0 / direct=1 / weightb=0 / open_gop=0 / weightp=0 / keyint=24 / keyint_min=13 / scenecut=40 / intra_refresh=0 / rc=abr / mbtree=0 / bitrate=16000 / ratetol=1.0 / qcomp=0.60 / qpmin=0 / qpmax=69 / qpstep=4 / ip_ratio=1.40 / pb_ratio=1.30 / aq=1:1.00
Default                                  : Yes
Forced                                   : No
Color range                              : Limited
Color primaries                          : BT.709
Transfer characteristics                 : BT.709
Matrix coefficients                      : BT.709


Audio #1
ID                                       : 2
Format                                   : DTS
Format/Info                              : Digital Theater Systems
Format profile                           : MA / Core
Mode                                     : 16
Format settings, Endianness              : Big
Codec ID                                 : A_DTS
Duration                                 : 1h 37mn
Bit rate mode                            : Variable / Constant
Bit rate                                 : Unknown / 1 509 Kbps
Channel(s)                               : 8 channels / 6 channels
Channel positions                        : Front: L C R, Side: L R, Back: L R, LFE / Front: L C R, Side: L R, LFE
Sampling rate                            : 48.0 KHz
Frame rate                               : 93.750 fps (512 spf)
Bit depth                                : 24 bits
Compression mode                         : Lossless / Lossy
Title                                    : Finding.Dory.2016.1080p.3D.BluRay.Half-OU.x264.DTS-HD.MA.7.1-FGT
Language                                 : English
Default                                  : Yes
Forced                                   : No


Audio #2
ID                                       : 3
Format                                   : DTS
Format/Info                              : Digital Theater Systems
Mode                                     : 16
Format settings, Endianness              : Big
Codec ID                                 : A_DTS
Duration                                 : 1h 37mn
Bit rate mode                            : Constant
Bit rate                                 : 1 509 Kbps
Channel(s)                               : 6 channels
Channel positions                        : Front: L C R, Side: L R, LFE
Sampling rate                            : 48.0 KHz
Frame rate                               : 93.750 fps (512 spf)
Bit depth                                : 24 bits
Compression mode                         : Lossy
Stream size                              : 1.02 GiB (5%)
Title                                    : Finding.Dory.2016.1080p.3D.BluRay.Half-OU.x264.DTS-HD.MA.7.1-FGT
Language                                 : English
Default                                  : No
Forced                                   : No


Audio #3
ID                                       : 4
Format                                   : DTS
Format/Info                              : Digital Theater Systems
Format profile                           : HRA / Core
Mode                                     : 16
Format settings, Endianness              : Big
Codec ID                                 : A_DTS
Duration                                 : 1h 37mn
Bit rate mode                            : Constant
Bit rate                                 : 2 046 Kbps / 1 509 Kbps
Channel(s)                               : 6 channels
Channel positions                        : Front: L C R, Side: L R, LFE
Sampling rate                            : 48.0 KHz
Frame rate                               : 93.750 fps (512 spf)
Bit depth                                : 24 bits
Compression mode                         : Lossy
Stream size                              : 1.39 GiB (7%)
Title                                    : Finding.Dory.2016.1080p.3D.BluRay.Half-OU.x264.DTS-HD.MA.7.1-FGT
Language                                 : English
Default                                  : No
Forced                                   : No


Audio #4
ID                                       : 5
Format                                   : DTS
Format/Info                              : Digital Theater Systems
Mode                                     : 16
Format settings, Endianness              : Big
Codec ID                                 : A_DTS
Duration                                 : 1h 37mn
Bit rate mode                            : Constant
Bit rate                                 : 1 509 Kbps
Channel(s)                               : 6 channels
Channel positions                        : Front: L C R, Side: L R, LFE
Sampling rate                            : 48.0 KHz
Frame rate                               : 93.750 fps (512 spf)
Bit depth                                : 24 bits
Compression mode                         : Lossy
Stream size                              : 1.02 GiB (5%)
Title                                    : Finding.Dory.2016.1080p.3D.BluRay.Half-OU.x264.DTS-HD.MA.7.1-FGT
Language                                 : English
Default                                  : No
Forced                                   : No


Audio #5
ID                                       : 6
Format                                   : AC-3
Format/Info                              : Audio Coding 3
Mode extension                           : CM (complete main)
Format settings, Endianness              : Big
Codec ID                                 : A_AC3
Duration                                 : 1h 37mn
Bit rate mode                            : Constant
Bit rate                                 : 320 Kbps
Channel(s)                               : 2 channels
Channel positions                        : Front: L R
Sampling rate                            : 48.0 KHz
Frame rate                               : 31.250 fps (1536 spf)
Compression mode                         : Lossy
Stream size                              : 222 MiB (1%)
Title                                    : Finding.Dory.2016.1080p.3D.BluRay.Half-OU.x264.DTS-HD.MA.7.1-FGT
Language                                 : English
Default                                  : No
Forced                                   : No


Audio #6
ID                                       : 7
Format                                   : AC-3
Format/Info                              : Audio Coding 3
Mode extension                           : CM (complete main)
Format settings, Endianness              : Big
Codec ID                                 : A_AC3
Duration                                 : 1h 37mn
Bit rate mode                            : Constant
Bit rate                                 : 512 Kbps
Channel(s)                               : 6 channels
Channel positions                        : Front: L C R, Side: L R, LFE
Sampling rate                            : 48.0 KHz
Frame rate                               : 31.250 fps (1536 spf)
Compression mode                         : Lossy
Stream size                              : 355 MiB (2%)
Title                                    : Finding.Dory.2016.1080p.3D.BluRay.Half-OU.x264.DTS-HD.MA.7.1-FGT
Language                                 : French
Default                                  : No
Forced                                   : No


Audio #7
ID                                       : 8
Format                                   : AC-3
Format/Info                              : Audio Coding 3
Mode extension                           : CM (complete main)
Format settings, Endianness              : Big
Codec ID                                 : A_AC3
Duration                                 : 1h 37mn
Bit rate mode                            : Constant
Bit rate                                 : 640 Kbps
Channel(s)                               : 6 channels
Channel positions                        : Front: L C R, Side: L R, LFE
Sampling rate                            : 48.0 KHz
Frame rate                               : 31.250 fps (1536 spf)
Compression mode                         : Lossy
Stream size                              : 444 MiB (2%)
Title                                    : Finding.Dory.2016.1080p.3D.BluRay.Half-OU.x264.DTS-HD.MA.7.1-FGT
Language                                 : Dutch
Default                                  : No
Forced                                   : No


Audio #8
ID                                       : 9
Format                                   : AC-3
Format/Info                              : Audio Coding 3
Mode extension                           : CM (complete main)
Format settings, Endianness              : Big
Codec ID                                 : A_AC3
Duration                                 : 1h 37mn
Bit rate mode                            : Constant
Bit rate                                 : 640 Kbps
Channel(s)                               : 6 channels
Channel positions                        : Front: L C R, Side: L R, LFE
Sampling rate                            : 48.0 KHz
Frame rate                               : 31.250 fps (1536 spf)
Compression mode                         : Lossy
Stream size                              : 444 MiB (2%)
Title                                    : Finding.Dory.2016.1080p.3D.BluRay.Half-OU.x264.DTS-HD.MA.7.1-FGT
Language                                 : Dutch
Default                                  : No
Forced                                   : No


Text #1
ID                                       : 10
Format                                   : PGS
Muxing mode                              : zlib
Codec ID                                 : S_HDMV/PGS
Codec ID/Info                            : Picture based subtitle format used on BDs/HD-DVDs
Title                                    : English-PGS
Language                                 : English
Default                                  : No
Forced                                   : No


Text #2
ID                                       : 11
Format                                   : PGS
Muxing mode                              : zlib
Codec ID                                 : S_HDMV/PGS
Codec ID/Info                            : Picture based subtitle format used on BDs/HD-DVDs
Title                                    : French-PGS
Language                                 : French
Default                                  : No
Forced                                   : No


Text #3
ID                                       : 12
Format                                   : PGS
Muxing mode                              : zlib
Codec ID                                 : S_HDMV/PGS
Codec ID/Info                            : Picture based subtitle format used on BDs/HD-DVDs
Title                                    : Dutch-PGS
Language                                 : Dutch
Default                                  : No
Forced                                   : No


Text #4
ID                                       : 13
Format                                   : PGS
Muxing mode                              : zlib
Codec ID                                 : S_HDMV/PGS
Codec ID/Info                            : Picture based subtitle format used on BDs/HD-DVDs
Title                                    : Dutch-FORCED-PGS
Language                                 : Dutch
Default                                  : No
Forced                                   : No


Menu
00:00:00.000                             : en01)00:00:00:000
00:02:35.738                             : en02)00:02:35:738
00:06:50.243                             : en03)00:06:50:243
00:10:53.194                             : en04)00:10:53:194
00:13:33.187                             : en05)00:13:33:187
00:15:25.132                             : en06)00:15:25:132
00:17:03.313                             : en07)00:17:03:313
00:19:35.465                             : en000:19:35:465
00:21:35.293                             : en09)00:21:35:293
00:24:58.705                             : en10)00:24:58:705
00:27:08.543                             : en11)00:27:08:543
00:30:33.206                             : en12)00:30:33:206
00:35:00.264                             : en13)00:35:00:264
00:37:52.019                             : en14)00:37:52:019
00:40:17.998                             : en15)00:40:17:998
00:41:06.672                             : en16)00:41:06:672
00:42:30.422                             : en17)00:42:30:422
00:46:03.427                             : en100:46:03:427
00:48:41.710                             : en19)00:48:41:710
00:50:27.857                             : en20)00:50:27:857
00:55:06.678                             : en21)00:55:06:678
00:57:05.838                             : en22)00:57:05:838
01:00:41.345                             : en23)01:00:41:345
01:04:32.952                             : en24)01:04:32:952
01:10:36.815                             : en25)01:10:36:815
01:12:28.301                             : en26)01:12:28:301
01:14:09.861                             : en27)01:14:09:861
01:18:26.493                             : en201:18:26:493
01:26:49.328                             : en29)01:26:49:328
01:37:03.400                             : en30)01:37:03:400





                                                                                                                                                                                                        
Finding.Dory.2016.1080p.3D.BluRay.Half-OU.x264.DTS-HD.MA.7.1-FGT[www.xixi16.com].torrent (94.81 KB, 下载次数: 0)

回复

使用道具 举报

您需要登录后才可以回帖 登录 | 立即注册

本版积分规则

bt天堂

本网站所有资源来自网络,如无意中侵犯了您的权益,请发邮件至 [email protected],立即清除相关链接

GMT+8, 2024-7-19 16:24 , Processed in 0.123621 second(s), 37 queries .

Powered by Discuz! X3.2

© 2001-2013 Comsenz Inc.

快速回复 返回顶部 返回列表