请选择 进入手机版 | 继续访问电脑版

bt天堂

 找回密码
 立即注册

疯狂原始人2/古鲁家族:新石代 The.Croods.A.New.Age.2020.3D.1080p.BluRay.x264-Pussy ...

[复制链接]

admin 发表于 2021-11-13 18:08:26 | 显示全部楼层 |阅读模式
疯狂原始人2/古鲁家族:新石代 The.Croods.A.New.Age.2020.3D.1080p.BluRay.x264-PussyFoot 7.85GB                                                                                                                                                                              -->
帖子完整标题:疯狂原始人2/古鲁家族:新石代 The.Croods.A.New.Age.2020.3D.1080p.BluRay.x264-PussyFoot 7.85GB





◎译  名 疯狂原始人2/古鲁家族:新石代(台)/古鲁家族2:霸器新時代(港)/疯狂原始人2:新纪元
◎片  名 The Croods: A New Age
◎年  代 2020
◎产  地 美国
◎类  别 喜剧 / 动画 / 冒险
◎语  言 英语
◎上映日期 2020-11-25(美国) / 2020-11-27(中国大陆)
◎豆瓣评分 7.8/10 from 227780 users
◎ 
◎片  长 95分钟
◎导  演 乔尔·克劳福德 Joel Crawford
◎编  剧 柯克·德·米科 Kirk De Micco / 丹·哈格曼 Dan Hageman / 凯文·哈格曼 Kevin Hageman / 克里斯·桑德斯 Chris Sanders / 保罗·费舍尔 Paul Fisher / 鲍勃·罗根 Bob Logan
◎主  演 尼古拉斯·凯奇 Nicolas Cage
     艾玛·斯通 Emma Stone
     瑞安·雷诺兹 Ryan Reynolds
     凯瑟琳·基纳 Catherine Keener
     莱斯利·曼恩 Leslie Mann
     彼特·丁拉基 Peter Dinklage
     克拉克·杜克 Clark Duke
     克萝丽丝·利奇曼 Cloris Leachman
     乔安娜·林莉 Joanna Lumley
     凯莉·玛丽·陈 Kelly Marie Tran
     凯特·戴琳斯 Kat Dennings
     郭京飞 Jingfei Guo
     林更新 Gengxin Lin
     郑恺 Kai Zheng

◎标  签 动画 | 搞笑 | 喜剧 | 梦工厂 | 温情 | 冒险 | 家庭 | 美国

◎简  介

  经历了逃离洞穴、挺过末日危机之后的原始人咕噜家族,咕噜一家决定寻找新家园。中途盖(瑞恩·雷诺兹 Ryan Reynolds 配音)已成了咕噜一家中的一员,但让瓜哥(尼古拉斯·凯奇 Nicolas Cage 配音)头疼的是,盖跟女儿小伊(艾玛·斯通 Emma Stone 配音)每天你侬我侬,还妄想组成只属于两人的小家庭。就在咕噜一家人饥肠辘辘之际,他们发现了一片高墙内隐藏着食物丰饶的沃土,原来开辟这片世外桃源的文明人夫妇霍普和菲尔是已经去世的盖的父母的朋友。在最初的热情款待后,一心想要撮合盖和女儿晓晓的霍普和菲尔,发现咕噜一家成了绊脚石,为了把盖抢过来,他们用上了攻心计。两家人闹得不可开交,盖和小伊也产生了裂痕,却浑然不知危险正慢慢靠近……

◎获奖情况

  第78届金球奖 ?(2021)
  电影类最佳动画长片(提名)
  
  第48届动画安妮奖 ?(2021)
  最佳动画长片(提名)
  最佳分镜(提名)
  最佳动画角色(提名)
  最佳角色设计(提名)
  最佳动画效果(提名)
  
  第32届美国制片人工会奖 ?(2021)
  最佳动画片制片人奖(提名)
  
  第71届美国剪辑工会奖 ?(2021)
  动画片最佳剪辑(提名)
  
  第25届美国艺术指导工会奖 ?(2021)
  电影奖最佳动画电影艺术指导(提名) 内特·伍拉格
  
  第68届美国音效剪辑协会奖 ?(2021)
  金卷轴奖最佳动画片音效剪辑(提名)
  
  第19届美国视觉效果协会奖 ?(2021)
  最佳动画电影视觉效果(提名)
  
  第57届美国声音效果协会奖 ?(2021)
  动画电影最佳音效(提名)
  
  第7届豆瓣电影年度榜单 ?(2020)
  评分最高的外语电影(提名)
  评分最高的动画片
Video
ID             : 1
Format           : AVC
Format/Info          : Advanced Video Codec
Format profile         :
Format settings        : CABAC / 5 Ref Frames
Format settings, CABAC       : Yes
Format settings, Reference frames  : 5 frames
Codec ID           : V_MPEG4/ISO/AVC
Duration           : 1 h 35 min
Bit rate           : 8 132 kb/s
Width            : 1 920 pixels
Height           : 816 pixels
Display aspect ratio       : 2.35:1
Frame rate mode        : Constant
Frame rate           : 23.976 FPS
Color space          : YUV
Chroma subsampling       : 4:2:0
Bit depth          : 8 bits
Scan type          : Progressive
Bits/(Pixel*Frame)       : 0.216
Stream size          : 5.41 GiB (69%)
Writing library        : x264 core 164 r3075 66a5bc1
Encoding settings        : cabac=1 / ref=5 / deblock=1:-3:-3 / analyse=0x3:0x133 / me=umh / subme=8 / psy=1 / psy_rd=1.00:0.00 / mixed_ref=1 / me_range=16 / chroma_me=1 / trellis=2 / 8x8dct=1 / cqm=0 / deadzone=21,11 / fast_pskip=0 / chroma_qp_offset=-2 / threads=24 / lookahead_threads=4 / sliced_threads=0 / nr=0 / decimate=1 / interlaced=0 / bluray_compat=0 / constrained_intra=0 / bframes=3 / b_pyramid=2 / b_adapt=1 / b_bias=0 / direct=3 / weightb=1 / open_gop=0 / weightp=2 / keyint=250 / keyint_min=23 / scenecut=40 / intra_refresh=0 / rc_lookahead=50 / rc=crf / mbtree=1 / crf=17.0 / qcomp=0.60 / qpmin=0 / qpmax=69 / qpstep=4 / ip_ratio=1.40 / aq=1:1.00
Language           : English
Default            : Yes
Forced           : No

Audio #1
ID             : 2
Format           : MLP FBA 16-ch
Format/Info          : Meridian Lossless Packing FBA with 16-channel presentation
Commercial name        : Dolby TrueHD with Dolby Atmos
Codec ID           : A_TRUEHD
Duration           : 1 h 35 min
Bit rate mode          : Variable
Bit rate           : 3 095 kb/s
Maximum bit rate         : 4 263 kb/s
Channel(s)           : 8 channels
Channel layout         : L R C LFE Ls Rs Lb Rb
Sampling rate          : 48.0 kHz
Frame rate           : 1 200.000 FPS (40 SPF)
Compression mode         : Lossless
Stream size          : 2.06 GiB (26%)
Language           : English
Default            : Yes
Forced           : No
Number of dynamic objects      : 11
Bed channel count        : 1 channel
Bed channel configuration      : LFE

Audio #2
ID             : 3
Format           : AC-3
Format/Info          : Audio Coding 3
Commercial name        : Dolby Digital
Codec ID           : A_AC3
Duration           : 1 h 35 min
Bit rate mode          : Constant
Bit rate           : 448 kb/s
Channel(s)           : 6 channels
Channel layout         : L R C LFE Ls Rs
Sampling rate          : 48.0 kHz
Frame rate           : 31.250 FPS (1536 SPF)
Compression mode         : Lossy
Stream size          : 305 MiB (4%)
Language           : English
Service kind         : Complete Main
Default            : No
Forced           : No

Text #1
ID             : 4
Format           : PGS
Muxing mode          : zlib
Codec ID           : S_HDMV/PGS
Codec ID/Info          : Picture based subtitle format used on BDs/HD-DVDs
Duration           : 1 h 34 min
Bit rate           : 41.5 kb/s
Count of elements        : 3002
Stream size          : 27.9 MiB (0%)
Language           : English
Default            : No
Forced           : No

Text #2
ID             : 5
Format           : PGS
Muxing mode          : zlib
Codec ID           : S_HDMV/PGS
Codec ID/Info          : Picture based subtitle format used on BDs/HD-DVDs
Duration           : 1 h 34 min
Bit rate           : 37.5 kb/s
Count of elements        : 3030
Stream size          : 25.3 MiB (0%)
Language           : French
Default            : No
Forced           : No

Text #3
ID             : 6
Format           : PGS
Muxing mode          : zlib
Codec ID           : S_HDMV/PGS
Codec ID/Info          : Picture based subtitle format used on BDs/HD-DVDs
Duration           : 1 h 34 min
Bit rate           : 38.3 kb/s
Count of elements        : 3002
Stream size          : 25.8 MiB (0%)
Language           : Italian
Default            : No
Forced           : No

Text #4
ID             : 7
Format           : PGS
Muxing mode          : zlib
Codec ID           : S_HDMV/PGS
Codec ID/Info          : Picture based subtitle format used on BDs/HD-DVDs
Duration           : 1 h 30 min
Bit rate           : 349 b/s
Count of elements        : 32
Stream size          : 231 KiB (0%)
Language           : Dutch
Default            : No
Forced           : No

Text #5
ID             : 8
Format           : PGS
Muxing mode          : zlib
Codec ID           : S_HDMV/PGS
Codec ID/Info          : Picture based subtitle format used on BDs/HD-DVDs
Duration           : 1 h 30 min
Bit rate           : 439 b/s
Count of elements        : 34
Stream size          : 291 KiB (0%)
Language           : Portuguese
Default            : No
Forced           : No

Text #6
ID             : 9
Format           : PGS
Muxing mode          : zlib
Codec ID           : S_HDMV/PGS
Codec ID/Info          : Picture based subtitle format used on BDs/HD-DVDs
Duration           : 1 h 30 min
Bit rate           : 568 b/s
Count of elements        : 52
Stream size          : 376 KiB (0%)
Language           : Russian
Default            : No
Forced           : No

Text #7
ID             : 10
Format           : PGS
Muxing mode          : zlib
Codec ID           : S_HDMV/PGS
Codec ID/Info          : Picture based subtitle format used on BDs/HD-DVDs
Duration           : 1 h 30 min
Bit rate           : 373 b/s
Count of elements        : 32
Stream size          : 247 KiB (0%)
Language           : Czech
Default            : No
Forced           : No

Menu
00:00:00.000         : en:Chapter 01
00:06:36.563         : en:Chapter 02
00:11:17.760         : en:Chapter 03
00:18:01.289         : en:Chapter 04
00:21:05.389         : en:Chapter 05
00:25:45.085         : en:Chapter 06
00:29:01.990         : en:Chapter 07
00:34:01.706         : en:Chapter 08
00:37:10.603         : en:Chapter 09
00:43:43.037         : en:Chapter 10
00:48:33.786         : en:Chapter 11
00:52:16.675         : en:Chapter 12
00:55:48.095         : en:Chapter 13
00:59:50.128         : en:Chapter 14
01:05:28.758         : en:Chapter 15
01:09:06.476         : en:Chapter 16
01:15:03.499         : en:Chapter 17
01:21:30.719         : en:Chapter 18
01:25:12.691         : en:Chapter 19
01:27:39.129         : en:Chapter 20






                                                                  
                                                                                                                                                                                                                                                                                 
0a23c6e9357b2635613a9b7a42d8f07e.torrent (20.49 KB, 下载次数: 0)

回复

使用道具 举报

您需要登录后才可以回帖 登录 | 立即注册

本版积分规则

bt天堂

本网站所有资源来自网络,如无意中侵犯了您的权益,请发邮件至 [email protected],立即清除相关链接

GMT+8, 2022-12-10 06:34 , Processed in 0.062595 second(s), 33 queries .

Powered by Discuz! X3.2

© 2001-2013 Comsenz Inc.

快速回复 返回顶部 返回列表