请选择 进入手机版 | 继续访问电脑版

bt天堂

 找回密码
 立即注册

妖怪大战争 The.Great.Yokai.War.1968.720p.BluRay.x264-CiNEPHiLiA 2.74GB

[复制链接]

admin 发表于 2021-12-1 18:36:33 | 显示全部楼层 |阅读模式
妖怪大战争 The.Great.Yokai.War.1968.720p.BluRay.x264-CiNEPHiLiA 2.74GB                                                                                                                                                                              -->
帖子完整标题:妖怪大战争 The.Great.Yokai.War.1968.720p.BluRay.x264-CiNEPHiLiA 2.74GB





◎译  名 妖怪大战争
◎片  名 妖怪大戦争
◎年  代 1968
◎产  地 日本
◎类  别 恐怖
◎语  言 日语
◎上映日期 1968-12-14
◎豆瓣评分 6.3/10 from 143 users
◎ 
◎片  长 79 分钟
◎主  演 神田隆 Takashi Kanda
     木村元 Gen Kimura
     川崎茜 Akane Kawasaki

◎标  签 日本 | 鬼怪 | 日本电影 | 奇幻 | 魔幻 | 恐怖 | 1968 | 黑田义之

◎简  介

  一伙盗墓贼无意间触动古巴比伦遗址的封印,唤醒了沉睡4000年之久的吸血魔(桥本力 饰)。吸血魔携着狂风暴雨来到江户时期的日本,杀害伊豆地区长官并附身其上,混进官府。人类无法识破吸血魔的伪装,只有住在官府池塘内的河童(黑木现 饰)看清其真身,但实力悬殊,无法取胜。吸血魔嗜血如狂,甚至残害儿童。河童集结其他妖怪反击,一度占居上风。吸血魔伺机逃跑,不久卷土重来,变本加厉为害人间。为了保护日本,河童等召集了全日本海?陆?空的百万妖怪,誓要将吸血魔彻底打败。
  
  本片拍摄于1968年,与《东海道惊魂》、《妖怪百物语》并称为“大映妖怪三部曲”。2005年由三池崇史重新翻拍。
Video
ID             : 1
Format           : AVC
Format/Info          : Advanced Video Codec
Format profile         :
Format settings        : CABAC / 8 Ref Frames
Format settings, CABAC       : Yes
Format settings, Reference frames  : 8 frames
Codec ID           : V_MPEG4/ISO/AVC
Duration           : 1 h 18 min
Bit rate           : 4 332 kb/s
Width            : 1 280 pixels
Height           : 536 pixels
Display aspect ratio       : 2.40:1
Frame rate mode        : Constant
Frame rate           : 23.976 (24000/1001/189150) FPS
Color space          : YUV
Chroma subsampling       : 4:2:0
Bit depth          : 8 bits
Scan type          : Progressive
Bits/(Pixel*Frame)       : 0.263
Stream size          : 2.39 GiB (87%)
Writing library        : x264 core 164 r3075 66a5bc1
Encoding settings        : cabac=1 / ref=8 / deblock=1:-3:-3 / analyse=0x3:0x133 / me=umh / subme=9 / psy=1 / psy_rd=1.00:0.00 / mixed_ref=1 / me_range=24 / chroma_me=1 / trellis=2 / 8x8dct=1 / cqm=0 / deadzone=21,11 / fast_pskip=0 / chroma_qp_offset=-2 / threads=17 / lookahead_threads=1 / sliced_threads=0 / nr=0 / decimate=0 / interlaced=0 / bluray_compat=0 / constrained_intra=0 / bframes=5 / b_pyramid=2 / b_adapt=2 / b_bias=0 / direct=3 / weightb=1 / open_gop=0 / weightp=2 / keyint=250 / keyint_min=23 / scenecut=40 / intra_refresh=0 / rc_lookahead=60 / rc=crf / mbtree=0 / crf=17.0 / qcomp=0.60 / qpmin=0 / qpmax=69 / qpstep=4 / vbv_maxrate=62500 / vbv_bufsize=78125 / crf_max=0.0 / nal_hrd=none / filler=0 / ip_ratio=1.40 / pb_ratio=1.30 / aq=3:0.60
Default            : Yes
Forced           : No

Audio
ID             : 2
Format           : FLAC
Format/Info          : Free Lossless Audio Codec
Codec ID           : A_FLAC
Duration           : 1 h 18 min
Bit rate mode          : Variable
Bit rate           : 627 kb/s
Channel(s)           : 1 channel
Channel layout         : C
Sampling rate          : 48.0 kHz
Frame rate           : 11.719 FPS (4096 SPF)
Bit depth          : 24 bits
Compression mode         : Lossless
Stream size          : 354 MiB (13%)
Writing library        : libFLAC 1.3.3 (UTC 2019-08-04)
Language           : Japanese
Default            : Yes
Forced           : No

Text #1
ID             : 3
Format           : PGS
Muxing mode          : zlib
Codec ID           : S_HDMV/PGS
Codec ID/Info          : Picture based subtitle format used on BDs/HD-DVDs
Duration           : 1 h 18 min
Bit rate           : 16.0 kb/s
Count of elements        : 984
Stream size          : 9.00 MiB (0%)
Language           : English
Default            : No
Forced           : No

Text #2
ID             : 4
Format           : UTF-8
Codec ID           : S_TEXT/UTF8
Codec ID/Info          : UTF-8 Plain Text
Duration           : 1 h 18 min
Bit rate           : 27 b/s
Count of elements        : 492
Stream size          : 16.0 KiB (0%)
Language           : English
Default            : Yes
Forced           : Yes

Menu
00:00:00.000         : :Chapter 01
00:07:02.339         : :Chapter 02
00:14:01.924         : :Chapter 03
00:20:38.571         : :Chapter 04
00:25:50.841         : :Chapter 05
00:31:57.082         : :Chapter 06
00:38:00.320         : :Chapter 07
00:43:22.183         : :Chapter 08
00:51:23.038         : :Chapter 09
00:59:21.850         : :Chapter 10
01:05:14.744         : :Chapter 11
01:14:00.561         : :Chapter 12






                                                                  
                                                                                                                                                                                                                                                                                 
917f4b2174057bde80914b05efc6295a.torrent (28.15 KB, 下载次数: 0)

回复

使用道具 举报

您需要登录后才可以回帖 登录 | 立即注册

本版积分规则

bt天堂

本网站所有资源来自网络,如无意中侵犯了您的权益,请发邮件至 [email protected],立即清除相关链接

GMT+8, 2022-12-10 06:48 , Processed in 0.059421 second(s), 33 queries .

Powered by Discuz! X3.2

© 2001-2013 Comsenz Inc.

快速回复 返回顶部 返回列表