请选择 进入手机版 | 继续访问电脑版

bt天堂

 找回密码
 立即注册

妖怪百物语 Yokai.Monsters.100.Monsters.1968.720p.BluRay.x264-CiNEPHiLiA 3.11GB . ...

[复制链接]

admin 发表于 2021-12-1 18:36:33 | 显示全部楼层 |阅读模式
妖怪百物语 Yokai.Monsters.100.Monsters.1968.720p.BluRay.x264-CiNEPHiLiA 3.11GB                                                                                                                                                                              -->
帖子完整标题:妖怪百物语 Yokai.Monsters.100.Monsters.1968.720p.BluRay.x264-CiNEPHiLiA 3.11GB





◎译  名 妖怪百物语
◎片  名 妖怪百物語
◎年  代 1968
◎产  地 日本
◎类  别 恐怖 / 奇幻
◎语  言 日语
◎上映日期 1968-03-20
◎豆瓣评分 7.1/10 from 206 users
◎ 
◎片  长 USA: 80 分钟(DVD)
◎导  演 安田公义 Kimiyoshi Yasuda
◎主  演 高田美和 Miwa Takada
     平泉成 Sei Hiraizumi
     藤卷润 Jun Fujimaki
     浜村淳 Jun Hamamura
     神田隆 Takashi Kanda
     荒木忍 Shinobu Araki
     坪内美纪子 Mikiko Tsubouchi

◎标  签 日本 | 日本电影 | 恐怖 | 怪谈 | 妖怪 | 安田公义 | 魔幻 | 1968

◎简  介

  深夜的怪谈大会,招来群妖无尽的诅咒!长颈女妖、单眼怪伞、无脸妖怪……《大魔神》、《座头市》、以及《眠狂四郎》系列导演安田公义代表作。片中聚集了榨油鬼、辘轳首、油腻老先生、以及大头怪……等日本知名妖怪。渡边宙明所创作的妖怪现身配乐,独特的氛围更为之后东映推出电视特摄片系列所沿用。
Video
ID             : 1
Format           : AVC
Format/Info          : Advanced Video Codec
Format profile         :
Format settings        : CABAC / 8 Ref Frames
Format settings, CABAC       : Yes
Format settings, Reference frames  : 8 frames
Codec ID           : V_MPEG4/ISO/AVC
Duration           : 1 h 18 min
Bit rate           : 4 990 kb/s
Width            : 1 280 pixels
Height           : 544 pixels
Display aspect ratio       : 2.35:1
Frame rate mode        : Constant
Frame rate           : 23.976 (24000/1001/189150) FPS
Color space          : YUV
Chroma subsampling       : 4:2:0
Bit depth          : 8 bits
Scan type          : Progressive
Bits/(Pixel*Frame)       : 0.299
Stream size          : 2.75 GiB (88%)
Writing library        : x264 core 164 r3075 66a5bc1
Encoding settings        : cabac=1 / ref=8 / deblock=1:-3:-3 / analyse=0x3:0x133 / me=umh / subme=9 / psy=1 / psy_rd=1.00:0.00 / mixed_ref=1 / me_range=24 / chroma_me=1 / trellis=2 / 8x8dct=1 / cqm=0 / deadzone=21,11 / fast_pskip=0 / chroma_qp_offset=-2 / threads=17 / lookahead_threads=1 / sliced_threads=0 / nr=0 / decimate=0 / interlaced=0 / bluray_compat=0 / constrained_intra=0 / bframes=5 / b_pyramid=2 / b_adapt=2 / b_bias=0 / direct=3 / weightb=1 / open_gop=0 / weightp=2 / keyint=250 / keyint_min=23 / scenecut=40 / intra_refresh=0 / rc_lookahead=60 / rc=crf / mbtree=0 / crf=17.0 / qcomp=0.60 / qpmin=0 / qpmax=69 / qpstep=4 / vbv_maxrate=62500 / vbv_bufsize=78125 / crf_max=0.0 / nal_hrd=none / filler=0 / ip_ratio=1.40 / pb_ratio=1.30 / aq=3:0.60
Default            : Yes
Forced           : No

Audio
ID             : 2
Format           : FLAC
Format/Info          : Free Lossless Audio Codec
Codec ID           : A_FLAC
Duration           : 1 h 18 min
Bit rate mode          : Variable
Bit rate           : 655 kb/s
Channel(s)           : 1 channel
Channel layout         : C
Sampling rate          : 48.0 kHz
Frame rate           : 11.719 FPS (4096 SPF)
Bit depth          : 24 bits
Compression mode         : Lossless
Delay relative to video      : 1 s 0 ms
Stream size          : 369 MiB (12%)
Writing library        : libFLAC 1.3.3 (UTC 2019-08-04)
Language           : Japanese
Default            : Yes
Forced           : No

Text #1
ID             : 3
Format           : PGS
Muxing mode          : zlib
Codec ID           : S_HDMV/PGS
Codec ID/Info          : Picture based subtitle format used on BDs/HD-DVDs
Duration           : 1 h 18 min
Bit rate           : 24.9 kb/s
Count of elements        : 1406
Stream size          : 14.0 MiB (0%)
Language           : English
Default            : No
Forced           : No

Text #2
ID             : 4
Format           : UTF-8
Codec ID           : S_TEXT/UTF8
Codec ID/Info          : UTF-8 Plain Text
Duration           : 1 h 18 min
Bit rate           : 40 b/s
Count of elements        : 703
Stream size          : 23.4 KiB (0%)
Language           : English
Default            : Yes
Forced           : Yes

Menu
00:00:00.000         : :Chapter 01
00:08:16.079         : :Chapter 02
00:14:45.468         : :Chapter 03
00:19:43.849         : :Chapter 04
00:23:50.929         : :Chapter 05
00:31:31.389         : :Chapter 06
00:39:38.710         : :Chapter 07
00:46:32.915         : :Chapter 08
00:52:09.918         : :Chapter 09
00:59:07.335         : :Chapter 10
01:06:22.520         : :Chapter 11
01:12:08.449         : :Chapter 12






                                                                  
                                                                                                                                                                                                                                                                                 
feef5c1fc300d8281216e205cb96acda.torrent (16.33 KB, 下载次数: 0)

回复

使用道具 举报

您需要登录后才可以回帖 登录 | 立即注册

本版积分规则

bt天堂

本网站所有资源来自网络,如无意中侵犯了您的权益,请发邮件至 [email protected],立即清除相关链接

GMT+8, 2022-12-10 07:55 , Processed in 0.060624 second(s), 33 queries .

Powered by Discuz! X3.2

© 2001-2013 Comsenz Inc.

快速回复 返回顶部 返回列表