请选择 进入手机版 | 继续访问电脑版

bt天堂

 找回密码
 立即注册

大冒险 The.Show.2020.1080p.BluRay.x264.DTS-HD.MA.5.1-MT 17.03GB

[复制链接]

admin 发表于 2021-12-2 18:45:43 | 显示全部楼层 |阅读模式
大冒险 The.Show.2020.1080p.BluRay.x264.DTS-HD.MA.5.1-MT 17.03GB                                                                                                                                                                              -->
帖子完整标题:大冒险 The.Show.2020.1080p.BluRay.x264.DTS-HD.MA.5.1-MT 17.03GB





◎译  名 大冒险
◎片  名 The Show
◎年  代 2020
◎产  地 英国
◎类  别 剧情 / 奇幻
◎语  言 英语
◎上映日期 2020-03(西南偏南电影节)
◎豆瓣评分 /10 from 0 users
◎ 
◎片  长 115分钟
◎编  剧 艾伦·摩尔 Alan Moore
◎主  演 汤姆·伯克 Tom Burke
     达雷尔·席尔瓦 Darrell D'Silva
     艾丽·巴姆博 Ellie Bamber
     理查德·迪兰 Richard Dillane
     安东尼娅·坎贝尔-休斯 Antonia Campbell-Hughes
     克里斯托弗·法里班克 Christopher Fairbank
     巴布·塞赛 Babou Ceesay
     罗杰·阿什顿-格里菲斯 Roger Ashton-Griffiths
     希欧布罕·休莱特 Siobhan Hewlett
     奥克利·佩德加斯特 Oaklee Pendergast
     艾伦·摩尔 Alan Moore
     希拉·阿蒂姆 Sheila Atim
     杰西·泰勒 Josie Taylor
     罗伯特·古德曼 Robert Goodman
     丹尼尔·杜伊特 Daniel Tuite
     伊桑·劳斯 Ethan Rouse
     伊恩·巴里特 Ian Barritt

◎标  签 阿兰摩尔 | uk | 待下 | fantasy | 2020s | 奇幻

◎简  介

  英国独立制作影片[大冒险](The Show,暂译)首张剧照曝光,该片改编自漫画家艾伦·摩尔的原创故事。摩尔的漫画作品包括《守望者》、《V字仇杀队》、《天降奇兵》、《来自地狱》等。新片导演米奇·詹金斯,摩尔操刀剧本,主演汤姆·伯克(《神探斯特莱克》)。故事讲述男主角弗莱彻·丹尼斯(伯克饰)受雇追查文物失窃事件,他因此被引至英格兰北安普顿一个闹鬼小镇,一场奇异冒险之旅随即展开。
Video
ID             : 1
Format           : AVC
Format/Info          : Advanced Video Codec
Format profile         :
Format settings        : CABAC / 5 Ref Frames
Format settings, CABAC       : Yes
Format settings, Reference frames  : 5 frames
Codec ID           : V_MPEG4/ISO/AVC
Duration           : 1 h 55 min
Bit rate           : 18.4 Mb/s
Width            : 1 920 pixels
Height           : 804 pixels
Display aspect ratio       : 2.40:1
Frame rate mode        : Constant
Frame rate           : 23.976 (24000/1001/189150) FPS
Color space          : YUV
Chroma subsampling       : 4:2:0
Bit depth          : 8 bits
Scan type          : Progressive
Bits/(Pixel*Frame)       : 0.497
Stream size          : 14.8 GiB (87%)
Writing library        : x264 core 157 r2938 2b00a84Mod
Encoding settings        : cabac=1 / ref=5 / deblock=1:-3:-3 / analyse=0x3:0x133 / me=umh / subme=10 / psy=1 / psy_rd=1.05:0.00 / mixed_ref=1 / me_range=32 / chroma_me=1 / trellis=2 / 8x8dct=1 / cqm=0 / deadzone=21,11 / fast_pskip=0 / chroma_qp_offset=-2 / threads=12 / lookahead_threads=2 / sliced_threads=0 / nr=0 / decimate=0 / interlaced=0 / bluray_compat=0 / constrained_intra=0 / bframes=8 / b_pyramid=2 / b_adapt=2 / b_bias=0 / direct=3 / weightb=1 / open_gop=0 / weightp=2 / keyint=250 / keyint_min=24 / scenecut=40 / intra_refresh=0 / rc_lookahead=250 / rc=crf / mbtree=0 / crf=16.8 / qcomp=0.60 / qpmin=0 / qpmax=69 / qpstep=4 / vbv_maxrate=62500 / vbv_bufsize=78125 / crf_max=0.0 / nal_hrd=none / filler=0 / ip_ratio=1.30 / pb_ratio=1.20 / aq=3:0.80
Language           : English
Default            : Yes
Forced           : No
Color range          : Limited
Color primaries        : BT.709
Matrix coefficients        : BT.709

Audio
ID             : 2
Format           : DTS XLL
Format/Info          : Digital Theater Systems
Commercial name        : DTS-HD Master Audio
Codec ID           : A_DTS
Duration           : 1 h 55 min
Bit rate mode          : Variable
Bit rate           : 2 713 kb/s
Channel(s)           : 6 channels
Channel layout         : C L R Ls Rs LFE
Sampling rate          : 48.0 kHz
Frame rate           : 93.750 FPS (512 SPF)
Bit depth          : 24 bits
Compression mode         : Lossless
Stream size          : 2.19 GiB (13%)
Language           : English
Default            : Yes
Forced           : No

Text #1
ID             : 3
Format           : UTF-8
Codec ID           : S_TEXT/UTF8
Codec ID/Info          : UTF-8 Plain Text
Duration           : 1 h 52 min
Bit rate           : 81 b/s
Count of elements        : 2073
Stream size          : 67.3 KiB (0%)
Language           : English
Default            : Yes
Forced           : No

Text #2
ID             : 4
Format           : UTF-8
Codec ID           : S_TEXT/UTF8
Codec ID/Info          : UTF-8 Plain Text
Duration           : 1 h 55 min
Bit rate           : 84 b/s
Count of elements        : 2199
Stream size          : 71.6 KiB (0%)
Language           : English
Default            : No
Forced           : No

Text #3
ID             : 5
Format           : PGS
Muxing mode          : zlib
Codec ID           : S_HDMV/PGS
Codec ID/Info          : Picture based subtitle format used on BDs/HD-DVDs
Duration           : 1 h 55 min
Bit rate           : 50.5 kb/s
Count of elements        : 4376
Stream size          : 41.5 MiB (0%)
Language           : English
Default            : No
Forced           : No

Menu
00:00:00.000         : en:Chapter 01
00:10:08.525         : en:Chapter 02
00:19:20.368         : en:Chapter 03
00:29:08.497         : en:Chapter 04
00:38:37.690         : en:Chapter 05
00:47:35.770         : en:Chapter 06
00:56:15.497         : en:Chapter 07
01:06:55.678         : en:Chapter 08
01:18:13.731         : en:Chapter 09
01:31:06.836         : en:Chapter 10
01:39:00.226         : en:Chapter 11
01:48:14.154         : en:Chapter 12

[/url]




                                                                  
                                                                                                                                                                                                                                                                                 
2d6aaef2f1ca250242623d6f597ffc50.torrent (21.9 KB, 下载次数: 0)

回复

使用道具 举报

您需要登录后才可以回帖 登录 | 立即注册

本版积分规则

bt天堂

本网站所有资源来自网络,如无意中侵犯了您的权益,请发邮件至 [email protected],立即清除相关链接

GMT+8, 2022-12-10 05:41 , Processed in 0.064242 second(s), 33 queries .

Powered by Discuz! X3.2

© 2001-2013 Comsenz Inc.

快速回复 返回顶部 返回列表