请选择 进入手机版 | 继续访问电脑版

bt天堂

 找回密码
 立即注册

乱世之定秦剑 The.Emperors.Sword.2020.CHINESE.1080p.BluRay.x264.DTS-HD.MA.5.1-MT ...

[复制链接]

admin 发表于 2021-12-2 18:45:43 | 显示全部楼层 |阅读模式
乱世之定秦剑 The.Emperors.Sword.2020.CHINESE.1080p.BluRay.x264.DTS-HD.MA.5.1-MT 10.60G                                                                                                                                                                              -->
帖子完整标题:乱世之定秦剑 The.Emperors.Sword.2020.CHINESE.1080p.BluRay.x264.DTS-HD.MA.5.1-MT 10.60GB





◎译  名 The Emperor's Sword
◎片  名 乱世之定秦剑
◎年  代 2020
◎产  地 中国大陆
◎类  别 动作 / 古装
◎语  言 汉语普通话
◎上映日期 2020-03-20(中国大陆)
◎豆瓣评分 /10 from 0 users
◎ 
◎片  长 93分钟
◎编  剧 方岚 Lan Fang
◎主  演 牟凤彬 Fengbin Mu
     郝怡霖 Yilin Hao
     杨奇雨 Qiyu Yang
     潘若瑶 Ruoyao Pan

◎标  签 武侠 | 网络电影 | 古装 | 动作 | 中国大陆 | 电影 | 大陆 | 蒙丹

◎简  介

  群雄纷乱的秦朝,秦始皇一统天下之后,秦朝即将面临被赵高篡权的局势。一时间英雄豪杰四起,共同守护可以稳定天下的定秦剑,以免落入贼人之手。战戟虽已沾满鲜血,姬廉(牟凤彬 饰)却丝毫没有退却,誓要坚守到生命的最后一刻,只为守护心中这片山河。
Video
ID             : 1
Format           : AVC
Format/Info          : Advanced Video Codec
Format profile         :
Format settings        : CABAC / 5 Ref Frames
Format settings, CABAC       : Yes
Format settings, Reference frames  : 5 frames
Codec ID           : V_MPEG4/ISO/AVC
Duration           : 1 h 31 min
Bit rate           : 14.2 Mb/s
Width            : 1 920 pixels
Height           : 804 pixels
Display aspect ratio       : 2.40:1
Frame rate mode        : Constant
Frame rate           : 24.000 FPS
Color space          : YUV
Chroma subsampling       : 4:2:0
Bit depth          : 8 bits
Scan type          : Progressive
Bits/(Pixel*Frame)       : 0.384
Stream size          : 9.04 GiB (85%)
Writing library        : x264 core 157 r2938 2b00a84Mod
Encoding settings        : cabac=1 / ref=5 / deblock=1:-3:-3 / analyse=0x3:0x133 / me=umh / subme=10 / psy=1 / psy_rd=1.05:0.00 / mixed_ref=1 / me_range=32 / chroma_me=1 / trellis=2 / 8x8dct=1 / cqm=0 / deadzone=21,11 / fast_pskip=0 / chroma_qp_offset=-2 / threads=12 / lookahead_threads=2 / sliced_threads=0 / nr=0 / decimate=0 / interlaced=0 / bluray_compat=0 / constrained_intra=0 / bframes=8 / b_pyramid=2 / b_adapt=2 / b_bias=0 / direct=3 / weightb=1 / open_gop=0 / weightp=2 / keyint=250 / keyint_min=24 / scenecut=40 / intra_refresh=0 / rc_lookahead=250 / rc=crf / mbtree=0 / crf=16.8 / qcomp=0.60 / qpmin=0 / qpmax=69 / qpstep=4 / vbv_maxrate=62500 / vbv_bufsize=78125 / crf_max=0.0 / nal_hrd=none / filler=0 / ip_ratio=1.30 / pb_ratio=1.20 / aq=3:0.80
Language           : Chinese
Default            : Yes
Forced           : No
Color range          : Limited
Color primaries        : BT.709
Matrix coefficients        : BT.709

Audio
ID             : 2
Format           : DTS XLL
Format/Info          : Digital Theater Systems
Commercial name        : DTS-HD Master Audio
Codec ID           : A_DTS
Duration           : 1 h 31 min
Bit rate mode          : Variable
Bit rate           : 2 434 kb/s
Channel(s)           : 6 channels
Channel layout         : C L R Ls Rs LFE
Sampling rate          : 48.0 kHz
Frame rate           : 93.750 FPS (512 SPF)
Bit depth          : 16 bits
Compression mode         : Lossless
Stream size          : 1.55 GiB (15%)
Language           : Chinese
Default            : Yes
Forced           : No

Text #1
ID             : 3
Format           : UTF-8
Codec ID           : S_TEXT/UTF8
Codec ID/Info          : UTF-8 Plain Text
Duration           : 1 h 26 min
Bit rate           : 24 b/s
Count of elements        : 516
Stream size          : 15.3 KiB (0%)
Language           : English
Default            : Yes
Forced           : No

Text #2
ID             : 4
Format           : PGS
Muxing mode          : zlib
Codec ID           : S_HDMV/PGS
Codec ID/Info          : Picture based subtitle format used on BDs/HD-DVDs
Duration           : 1 h 26 min
Bit rate           : 15.7 kb/s
Count of elements        : 956
Stream size          : 9.75 MiB (0%)
Language           : English
Default            : No
Forced           : No

Menu
00:00:00.000         : en:Chapter 01
00:09:25.042         : en:Chapter 02
00:17:59.000         : en:Chapter 03
00:25:43.042         : en:Chapter 04
00:34:21.292         : en:Chapter 05
00:43:13.542         : en:Chapter 06
00:51:39.625         : en:Chapter 07
00:59:23.458         : en:Chapter 08
01:08:49.458         : en:Chapter 09
01:16:55.750         : en:Chapter 10
01:27:25.667         : en:Chapter 11

[/url]

[/url]




                                                                  
                                                                                                                                                                                                                                                                                 
230ce4742986eaae0b71e558540d36a3.torrent (13.91 KB, 下载次数: 0)

回复

使用道具 举报

您需要登录后才可以回帖 登录 | 立即注册

本版积分规则

bt天堂

本网站所有资源来自网络,如无意中侵犯了您的权益,请发邮件至 [email protected],立即清除相关链接

GMT+8, 2022-12-10 06:51 , Processed in 0.061394 second(s), 33 queries .

Powered by Discuz! X3.2

© 2001-2013 Comsenz Inc.

快速回复 返回顶部 返回列表