请选择 进入手机版 | 继续访问电脑版

bt天堂

 找回密码
 立即注册

暗潮汹涌/挑拨性丑闻 The.Contender.2000.720p.BluRay.x264-FREEMAN 3.62GB

[复制链接]

admin 发表于 2021-12-2 19:00:57 | 显示全部楼层 |阅读模式
暗潮汹涌/挑拨性丑闻 The.Contender.2000.720p.BluRay.x264-FREEMAN 3.62GB                                                                                                                                                                              -->
帖子完整标题:暗潮汹涌/挑拨性丑闻 The.Contender.2000.720p.BluRay.x264-FREEMAN 3.62GB





◎译  名 暗潮汹涌/挑拨性丑闻(港)/政界风云/竞争者
◎片  名 The Contender
◎年  代 2000
◎产  地 美国,德国,英国
◎类  别 剧情
◎语  言 英语
◎上映日期 2000-10-13
◎豆瓣评分 6.8/10 from 185 users
◎ 
◎片  长 126分钟
◎导  演 罗德·拉里 Rod Lurie
◎编  剧 罗德·拉里 Rod Lurie
◎主  演 加里·奥德曼 Gary Oldman
     琼·艾伦 Joan Allen
     杰夫·布里吉斯 Jeff Bridges
     克里斯蒂安·史莱特 Christian Slater
     山姆·艾里奥特 Sam Elliott
     Sherri Richmond Sherri Richmond
     约瑟夫·莱尔·泰勒 Joseph Lyle Taylor
     安吉丽卡·托恩 Angelica Torn
     罗宾·托马斯 Robin Thomas
     艾琳·齐格勒 Irene Ziegler
     大卫·福斯特 David Foster
     Liz Marks Liz Marks
     麦克·宾德尔Mike Binder
     拉里·金 Larry King
     道格拉斯·尤巴斯基 Douglas Urbanski
     威廉·彼德森 William Petersen
     卡琳·莫维尔 Caryn Mower
     绍尔·鲁宾内克 Saul Rubinek
     贾斯汀·路易斯 Justin Louis
     玛瑞儿·海明威 Mariel Hemingway
     菲利普·贝克·霍尔 Philip Baker Hall
     Andrew C. Boothby Andrew C. Boothby
     安东尼·布思 Anthony Booth
     Del Driver Del Driver
     罗德尼·J·霍布斯 Rodney J. Hobbs
     罗伯特·哈维 Robert Harvey
     Michael Stanton Kennedy Michael Stanton Kennedy
     Sean Pratt Sean Pratt
     凯瑟琳·莫里斯 Kathryn Morris

◎标  签 美国 || GaryOldman | 2000 | 剧情 | 美国电影 | JeffBridges | Rod_Lurie

◎简  介

  副总统的突然去世将民主党参议院莱恩(琼·艾伦 Joan Allen 饰)推向了风口浪尖,她被提名为最佳总统候选人,如果莱恩当选,那她将成为美国历史上第一位女性总统。莱恩的性别很快就成为了保守党们激烈攻击的目标,其中要属谢力(加里·奥德曼 Gary Oldman 饰)的攻击性最强。
  
  谢力是一个老谋深算阴险狡诈的老政客了,他是那种为了达到目的可以不惜一切手段的男人。谢力不知道从哪里挖出了莱恩大学时代的黑历史,这段历史的曝光不仅将影响莱恩此次的竞选,而且有可能毁掉她的生命乃至个人生活。为了捍卫自己的权利,莱恩必须勇敢的站在聚光灯下进行反击。

◎获奖情况

  第73届奥斯卡金像奖 ?(2001)
  最佳女主角(提名) 琼·艾伦
  最佳男配角(提名) 杰夫·布里吉斯
  
  第58届金球奖 ?(2001)
  电影类剧情片最佳女主角(提名) 琼·艾伦
  电影类最佳男配角(提名) 杰夫·布里吉斯
Video
ID             : 1
Format           : AVC
Format/Info          : Advanced Video Codec
Format profile         :
Format settings        : CABAC / 8 Ref Frames
Format settings, CABAC       : Yes
Format settings, Reference frames  : 8 frames
Codec ID           : V_MPEG4/ISO/AVC
Duration           : 2 h 0 min
Bit rate           : 4 060 kb/s
Width            : 1 280 pixels
Height           : 720 pixels
Display aspect ratio       : 16:9
Frame rate mode        : Constant
Frame rate           : 25.000 FPS
Color space          : YUV
Chroma subsampling       : 4:2:0
Bit depth          : 8 bits
Scan type          : Progressive
Bits/(Pixel*Frame)       : 0.176
Stream size          : 3.43 GiB (95%)
Writing library        : x264 core 164 r3075 66a5bc1
Encoding settings        : cabac=1 / ref=8 / deblock=1:-3:-3 / analyse=0x3:0x133 / me=umh / subme=9 / psy=1 / psy_rd=1.00:0.00 / mixed_ref=1 / me_range=16 / chroma_me=1 / trellis=2 / 8x8dct=1 / cqm=0 / deadzone=21,11 / fast_pskip=0 / chroma_qp_offset=-2 / threads=22 / lookahead_threads=1 / sliced_threads=0 / nr=0 / decimate=1 / interlaced=0 / bluray_compat=0 / constrained_intra=0 / bframes=3 / b_pyramid=2 / b_adapt=2 / b_bias=0 / direct=3 / weightb=1 / open_gop=0 / weightp=2 / keyint=250 / keyint_min=25 / scenecut=40 / intra_refresh=0 / rc_lookahead=60 / rc=crf / mbtree=1 / crf=18.0 / qcomp=0.60 / qpmin=0 / qpmax=69 / qpstep=4 / ip_ratio=1.40 / aq=3:0.60
Default            : Yes
Forced           : No
Color range          : Limited
Matrix coefficients        : BT.709

Audio
ID             : 2
Format           : AC-3
Format/Info          : Audio Coding 3
Commercial name        : Dolby Digital
Codec ID           : A_AC3
Duration           : 2 h 0 min
Bit rate mode          : Constant
Bit rate           : 224 kb/s
Channel(s)           : 2 channels
Channel layout         : L R
Sampling rate          : 48.0 kHz
Frame rate           : 31.250 FPS (1536 SPF)
Compression mode         : Lossy
Stream size          : 194 MiB (5%)
Language           : English
Service kind         : Complete Main
Default            : Yes
Forced           : No

Text
ID             : 3
Format           : PGS
Muxing mode          : zlib
Codec ID           : S_HDMV/PGS
Codec ID/Info          : Picture based subtitle format used on BDs/HD-DVDs
Duration           : 1 h 53 min
Bit rate           : 243 b/s
Count of elements        : 19
Stream size          : 202 KiB (0%)
Language           : German
Default            : No
Forced           : No

Menu
00:00:00.000         : en:00:00:00.000
00:01:24.040         : en:00:01:24.040
00:01:34.080         : en:00:01:34.080
00:17:07.040         : en:00:17:07.040
00:37:59.040         : en:00:37:59.040
00:55:15.600         : en:00:55:15.600
01:13:59.160         : en:01:13:59.160
01:34:03.360         : en:01:34:03.360
01:54:28.880         : en:01:54:28.880






                                                                  
                                                                                                                                                                                                                                                                                 
0698071093456ec901e46e3e8c7b6ea7.torrent (18.81 KB, 下载次数: 0)

回复

使用道具 举报

您需要登录后才可以回帖 登录 | 立即注册

本版积分规则

bt天堂

本网站所有资源来自网络,如无意中侵犯了您的权益,请发邮件至 [email protected],立即清除相关链接

GMT+8, 2022-12-10 06:46 , Processed in 0.062999 second(s), 33 queries .

Powered by Discuz! X3.2

© 2001-2013 Comsenz Inc.

快速回复 返回顶部 返回列表