请选择 进入手机版 | 继续访问电脑版

bt天堂

 找回密码
 立即注册

骏马奥斯温5 Windstorm.The.Great.Hurricane.2021.720p.BluRay.x264-GUACAMOLE 3.23GB ...

[复制链接]

admin 发表于 2021-12-2 19:00:57 | 显示全部楼层 |阅读模式
骏马奥斯温5 Windstorm.The.Great.Hurricane.2021.720p.BluRay.x264-GUACAMOLE 3.23GB                                                                                                                                                                              -->
帖子完整标题:骏马奥斯温5 Windstorm.The.Great.Hurricane.2021.720p.BluRay.x264-GUACAMOLE 3.23GB





◎译  名 骏马奥斯温5
◎片  名 Ostwind - Der gro?e Orkan
◎年  代 2020
◎产  地 德国
◎类  别 家庭 / 冒险
◎语  言 德语
◎上映日期 
◎豆瓣评分 /10 from 0 users
◎ 
◎片  长 102 分钟
◎导  演 雷娅·施米德鲍尔 Lea Schmidbauer
◎编  剧 雷娅·施米德鲍尔 Lea Schmidbauer
◎主  演 汉娜·宾克 Hanna Binke
     马文·林克 Marvin Linke
     安柏·本加德 Amber Bongard
     斯洛·派克内尔 Tilo Prückner
     科奈莉亚·弗洛波伊斯 Cornelia Froboess

◎简  介

  Mit dem fünften Film kommt die popul?re Filmreihe über den wilden Hengst und die besondere Verbindung zu Mika und Ari zu einem Ende. Die Romane von Lea Schmidbauer sind mit ?Ostwind: Der gro?e Orkan“ zu Ende erz?hlt.
  
  Als besonderes Abschiedsgeschenk nimmt die Romanautorin und Drehbuchautorin Lea Schmidbauer im abschlie?enden Film auf dem Regiestuhl Platz. Schlie?lich kennt niemand Ostwind, Mika und Ari besser als sie.
  
  Das Finale vereint ein letztes Mal die gro?en Stars der Reihe, rund um Luna Paiano, Hanna Binke, Marvin Linke, Amber Bongard, Cornelia Froboess und in seiner letzten Filmrolle Tilo Prückner. Neu hinzusto?en Gedeon Burkhard, Nils Brunkhorst und Newcomer Matteo Miska.
Video
ID             : 1
Format           : AVC
Format/Info          : Advanced Video Codec
Format profile         :
Format settings        : CABAC / 8 Ref Frames
Format settings, CABAC       : Yes
Format settings, Reference frames  : 8 frames
Codec ID           : V_MPEG4/ISO/AVC
Duration           : 1 h 42 min
Bit rate           : 3 852 kb/s
Width            : 1 280 pixels
Height           : 536 pixels
Display aspect ratio       : 2.40:1
Frame rate mode        : Constant
Frame rate           : 24.000 FPS
Color space          : YUV
Chroma subsampling       : 4:2:0
Bit depth          : 8 bits
Scan type          : Progressive
Bits/(Pixel*Frame)       : 0.234
Stream size          : 2.75 GiB (85%)
Writing library        : x264 core 164 r3075 66a5bc1
Encoding settings        : cabac=1 / ref=8 / deblock=1:-3:-3 / analyse=0x3:0x133 / me=umh / subme=9 / psy=1 / psy_rd=1.00:0.00 / mixed_ref=1 / me_range=16 / chroma_me=1 / trellis=2 / 8x8dct=1 / cqm=0 / deadzone=21,11 / fast_pskip=0 / chroma_qp_offset=-2 / threads=17 / lookahead_threads=1 / sliced_threads=0 / nr=0 / decimate=1 / interlaced=0 / bluray_compat=0 / constrained_intra=0 / bframes=3 / b_pyramid=2 / b_adapt=2 / b_bias=0 / direct=3 / weightb=1 / open_gop=0 / weightp=2 / keyint=250 / keyint_min=24 / scenecut=40 / intra_refresh=0 / rc_lookahead=60 / rc=crf / mbtree=1 / crf=17.0 / qcomp=0.60 / qpmin=0 / qpmax=69 / qpstep=4 / ip_ratio=1.40 / aq=3:1.00
Default            : Yes
Forced           : No
Color range          : Limited
Matrix coefficients        : BT.709

Audio
ID             : 2
Format           : AC-3
Format/Info          : Audio Coding 3
Commercial name        : Dolby Digital
Codec ID           : A_AC3
Duration           : 1 h 42 min
Bit rate mode          : Constant
Bit rate           : 640 kb/s
Channel(s)           : 6 channels
Channel layout         : L R C LFE Ls Rs
Sampling rate          : 48.0 kHz
Frame rate           : 31.250 FPS (1536 SPF)
Compression mode         : Lossy
Stream size          : 468 MiB (14%)
Language           : German
Service kind         : Complete Main
Default            : Yes
Forced           : No

Text #1
ID             : 3
Format           : UTF-8
Codec ID           : S_TEXT/UTF8
Codec ID/Info          : UTF-8 Plain Text
Duration           : 1 h 40 min
Bit rate           : 44 b/s
Count of elements        : 1081
Stream size          : 32.6 KiB (0%)
Language           : English
Default            : Yes
Forced           : Yes

Text #2
ID             : 4
Format           : PGS
Muxing mode          : zlib
Codec ID           : S_HDMV/PGS
Codec ID/Info          : Picture based subtitle format used on BDs/HD-DVDs
Duration           : 1 h 40 min
Bit rate           : 33.4 kb/s
Count of elements        : 2184
Stream size          : 24.1 MiB (1%)
Language           : English
Default            : No
Forced           : No

Text #3
ID             : 5
Format           : PGS
Muxing mode          : zlib
Codec ID           : S_HDMV/PGS
Codec ID/Info          : Picture based subtitle format used on BDs/HD-DVDs
Duration           : 1 h 41 min
Bit rate           : 40.8 kb/s
Count of elements        : 2480
Stream size          : 29.6 MiB (1%)
Language           : German
Default            : No
Forced           : No

Menu
00:00:00.000         : en:00:00:00.000
00:04:34.083         : en:00:04:34.083
00:08:37.583         : en:00:08:37.583
00:14:47.708         : en:00:14:47.708
00:20:30.250         : en:00:20:30.250
00:25:48.375         : en:00:25:48.375
00:33:54.667         : en:00:33:54.667
00:39:39.708         : en:00:39:39.708
00:47:32.000         : en:00:47:32.000
00:53:08.083         : en:00:53:08.083
01:00:26.083         : en:01:00:26.083
01:07:45.500         : en:01:07:45.500
01:14:48.500         : en:01:14:48.500
01:19:05.875         : en:01:19:05.875
01:26:01.708         : en:01:26:01.708
01:31:48.125         : en:01:31:48.125
01:36:10.750         : en:01:36:10.750





                                                                  
                                                                                                                                                                                                                                                                                 
08eaafcfeb3a6f85c07e02c38848e693.torrent (16.86 KB, 下载次数: 0)

回复

使用道具 举报

您需要登录后才可以回帖 登录 | 立即注册

本版积分规则

bt天堂

本网站所有资源来自网络,如无意中侵犯了您的权益,请发邮件至 [email protected],立即清除相关链接

GMT+8, 2022-12-10 07:02 , Processed in 0.059955 second(s), 33 queries .

Powered by Discuz! X3.2

© 2001-2013 Comsenz Inc.

快速回复 返回顶部 返回列表