请选择 进入手机版 | 继续访问电脑版

bt天堂

 找回密码
 立即注册

414区 Zone.414.2021.720p.BluRay.x264-GETiT 2.02GB

[复制链接]

admin 发表于 2021-12-2 19:00:57 | 显示全部楼层 |阅读模式
414区 Zone.414.2021.720p.BluRay.x264-GETiT 2.02GB                                                                                                                                                                              -->
帖子完整标题:414区 Zone.414.2021.720p.BluRay.x264-GETiT 2.02GB





◎译  名 414区
◎片  名 Zone 414
◎年  代 2021
◎产  地 美国
◎类  别 科幻
◎语  言 英语
◎上映日期 2021-09-03(美国)
◎豆瓣评分 4.5/10 from 448 users
◎ 
◎片  长 98分钟
◎导  演 安德鲁·贝尔德 Andrew Baird
◎编  剧 布莱恩·爱德华·希尔 Bryan Edward Hill
◎主  演 盖·皮尔斯 Guy Pearce
     崔维斯·费米尔 Travis Fimmel
     约翰内斯·豪克尔·约翰内森 Jóhannes Haukur Jóhannesson
     科林·萨蒙 Colin Salmon
     奈德·丹内利 Ned Dennehy
     玛蒂尔达·鲁茨 Matilda Anna Ingrid Lutz
     乔纳森·阿里斯 Jonathan Aris
     安东尼娅·坎贝尔-休斯 Antonia Campbell-Hughes
     欧文·弗热瑞 Olwen Fouéré
     玛吉·克罗宁 Maggie Cronin

◎标  签 科幻 | 美国 | 惊悚 | 2021 | 盖·皮尔斯 | 美国电影 | 电影 | 生活

◎简  介

  故事背景设置在不远的未来世界,在414区的人型机器人殖民地中,私家侦探大卫·卡迈克尔(皮尔斯饰)受雇于痴迷商业世界的财阀马龙·维特(费米尔饰)去寻找后者叛逆的女儿。卡迈克尔需要与高度智能的机器人(鲁茨饰)通力合作,而在这个过程中,关于414区和“机器人之城”起源的罪行也浮出了水面。
Video
ID             : 1
Format           : AVC
Format/Info          : Advanced Video Codec
Format profile         :
Format settings        : CABAC / 8 Ref Frames
Format settings, CABAC       : Yes
Format settings, Reference frames  : 8 frames
Codec ID           : V_MPEG4/ISO/AVC
Duration           : 1 h 38 min
Bit rate           : 2 266 kb/s
Width            : 1 280 pixels
Height           : 534 pixels
Display aspect ratio       : 2.40:1
Frame rate mode        : Constant
Frame rate           : 23.976 (24000/1001/189150) FPS
Color space          : YUV
Chroma subsampling       : 4:2:0
Bit depth          : 8 bits
Scan type          : Progressive
Bits/(Pixel*Frame)       : 0.138
Stream size          : 1.56 GiB (77%)
Writing library        : x264 core 164 r3075 66a5bc1
Encoding settings        : cabac=1 / ref=8 / deblock=1:-3:-3 / analyse=0x3:0x133 / me=umh / subme=9 / psy=1 / psy_rd=1.00:0.00 / mixed_ref=1 / me_range=16 / chroma_me=1 / trellis=2 / 8x8dct=1 / cqm=0 / deadzone=21,11 / fast_pskip=0 / chroma_qp_offset=-2 / threads=17 / lookahead_threads=1 / sliced_threads=0 / nr=0 / decimate=1 / interlaced=0 / bluray_compat=0 / constrained_intra=0 / bframes=3 / b_pyramid=2 / b_adapt=2 / b_bias=0 / direct=3 / weightb=1 / open_gop=0 / weightp=2 / keyint=250 / keyint_min=23 / scenecut=40 / intra_refresh=0 / rc_lookahead=60 / rc=crf / mbtree=1 / crf=17.0 / qcomp=0.60 / qpmin=0 / qpmax=69 / qpstep=4 / ip_ratio=1.40 / aq=3:1.00
Default            : Yes
Forced           : No
Color range          : Limited
Matrix coefficients        : BT.709

Audio
ID             : 2
Format           : AC-3
Format/Info          : Audio Coding 3
Commercial name        : Dolby Digital
Codec ID           : A_AC3
Duration           : 1 h 38 min
Bit rate mode          : Constant
Bit rate           : 640 kb/s
Channel(s)           : 6 channels
Channel layout         : L R C LFE Ls Rs
Sampling rate          : 48.0 kHz
Frame rate           : 31.250 FPS (1536 SPF)
Compression mode         : Lossy
Stream size          : 451 MiB (22%)
Language           : English
Service kind         : Complete Main
Default            : Yes
Forced           : No

Text #1
ID             : 3
Format           : PGS
Muxing mode          : zlib
Codec ID           : S_HDMV/PGS
Codec ID/Info          : Picture based subtitle format used on BDs/HD-DVDs
Duration           : 1 h 30 min
Bit rate           : 26.4 kb/s
Count of elements        : 1604
Stream size          : 17.0 MiB (1%)
Language           : Dutch
Default            : No
Forced           : No

Text #2
ID             : 4
Format           : PGS
Muxing mode          : zlib
Codec ID           : S_HDMV/PGS
Codec ID/Info          : Picture based subtitle format used on BDs/HD-DVDs
Duration           : 1 h 30 min
Bit rate           : 31.4 kb/s
Count of elements        : 1604
Stream size          : 20.2 MiB (1%)
Language           : German
Default            : No
Forced           : No

Text #3
ID             : 5
Format           : PGS
Muxing mode          : zlib
Codec ID           : S_HDMV/PGS
Codec ID/Info          : Picture based subtitle format used on BDs/HD-DVDs
Duration           : 3 min 42 s
Bit rate           : 1 469 b/s
Count of elements        : 4
Stream size          : 39.9 KiB (0%)
Language           : German
Default            : No
Forced           : No

Menu
00:00:00.000         : en:00:00:00.000
00:08:02.607         : en:00:08:02.607
00:15:40.731         : en:00:15:40.731
00:23:45.924         : en:00:23:45.924
00:31:27.677         : en:00:31:27.677
00:39:58.479         : en:00:39:58.479
00:50:22.603         : en:00:50:22.603
00:56:33.473         : en:00:56:33.473
01:04:33.244         : en:01:04:33.244
01:13:46.380         : en:01:13:46.380
01:22:43.000         : en:01:22:43.000
01:30:55.241         : en:01:30:55.241






                                                                  
                                                                                                                                                                                                                                                                                 
f09cbc323b87d3a64f153aa2d8eef40e.torrent (20.87 KB, 下载次数: 0)

回复

使用道具 举报

您需要登录后才可以回帖 登录 | 立即注册

本版积分规则

bt天堂

本网站所有资源来自网络,如无意中侵犯了您的权益,请发邮件至 [email protected],立即清除相关链接

GMT+8, 2022-12-10 05:51 , Processed in 0.061118 second(s), 33 queries .

Powered by Discuz! X3.2

© 2001-2013 Comsenz Inc.

快速回复 返回顶部 返回列表