请选择 进入手机版 | 继续访问电脑版

bt天堂

 找回密码
 立即注册

冲动/浪涌 Surge.2020.720p.BluRay.x264.DTS-MT 5.18GB

[复制链接]

admin 发表于 2021-12-2 19:00:57 | 显示全部楼层 |阅读模式
冲动/浪涌 Surge.2020.720p.BluRay.x264.DTS-MT 5.18GB                                                                                                                                                                              -->
帖子完整标题:冲动/浪涌 Surge.2020.720p.BluRay.x264.DTS-MT 5.18GB





◎译  名 冲动/浪涌
◎片  名 Surge
◎年  代 2020
◎产  地 英国
◎类  别 惊悚
◎语  言 英语
◎上映日期 2020-01-26(圣丹斯电影节) / 2021-05-28(英国)
◎豆瓣评分 7.2/10 from 331 users
◎ 
◎片  长 105分钟
◎导  演 阿奈尔·卡里亚 Aneil Karia
◎编  剧 鲁伯特·琼斯 Rupert Jones
◎主  演 本·卫肖 Ben Whishaw
     埃莉·哈丁顿 Ellie Haddington
     伊恩·盖尔德 Ian Gelder
     瑞恩·麦肯 Ryan McKen
     劳伦斯·斯佩尔曼 Laurence Spellman
     穆纳·奥塔茹 Muna Otaru
     保罗·布莱克维尔 Paul Blackwell
     莱蕾·迪克斯 Laraine Dix
     雷·卡雷贾 Ray Calleja
     杰克·皮尔斯 Jack Pierce

◎标  签 本·卫肖 | 英国 | BenWhishaw | 惊悚 | 2020 | 剧情 | 英国电影 | UK

◎简  介

  约瑟夫是一名机场安检员,生活看似平淡无奇,然而,日常的工作枯燥乏味,安检传送带也持续输送着来自乘客和同事的疏离与不安。在一次不愉快的家庭聚会后,一个新的不羁的灵魂开始侵蚀原来的他,新的约瑟夫行事不计后果,时刻处在情感爆发、自我毁灭的边缘。这不仅是主人公一场拼命挣扎的自我发现,也是社会中形形色色普通人的生活写照。影片以手持摄影的形式拍摄,富于压迫感的镜头使人轻易代入人物混乱的内心。本·卫肖的表演极具冲击力。

◎获奖情况

  第36届圣丹斯电影节 ?(2020)
  评审团大奖世界电影单元剧情片(提名) 阿奈尔·卡里亚
  评审团特别奖表演 本·卫肖
  
  第3届海南岛国际电影节 ?(2020)
  金椰奖最佳影片奖(提名) 阿奈尔·卡里亚
Video
ID             : 1
Format           : AVC
Format/Info          : Advanced Video Codec
Format profile         :
Format settings        : CABAC / 12 Ref Frames
Format settings, CABAC       : Yes
Format settings, Reference frames  : 12 frames
Codec ID           : V_MPEG4/ISO/AVC
Duration           : 1 h 39 min
Bit rate           : 5 928 kb/s
Width            : 1 280 pixels
Height           : 536 pixels
Display aspect ratio       : 2.40:1
Frame rate mode        : Constant
Frame rate           : 23.976 (24000/1001/189150) FPS
Color space          : YUV
Chroma subsampling       : 4:2:0
Bit depth          : 8 bits
Scan type          : Progressive
Bits/(Pixel*Frame)       : 0.360
Stream size          : 4.13 GiB (80%)
Writing library        : x264 core 157 r2938 2b00a84Mod
Encoding settings        : cabac=1 / ref=12 / deblock=1:-3:-3 / analyse=0x3:0x133 / me=umh / subme=10 / psy=1 / psy_rd=1.05:0.00 / mixed_ref=1 / me_range=32 / chroma_me=1 / trellis=2 / 8x8dct=1 / cqm=0 / deadzone=21,11 / fast_pskip=0 / chroma_qp_offset=-2 / threads=12 / lookahead_threads=2 / sliced_threads=0 / nr=0 / decimate=0 / interlaced=0 / bluray_compat=0 / constrained_intra=0 / bframes=8 / b_pyramid=2 / b_adapt=2 / b_bias=0 / direct=3 / weightb=1 / open_gop=0 / weightp=2 / keyint=250 / keyint_min=24 / scenecut=40 / intra_refresh=0 / rc_lookahead=250 / rc=crf / mbtree=0 / crf=16.8 / qcomp=0.60 / qpmin=0 / qpmax=69 / qpstep=4 / vbv_maxrate=62500 / vbv_bufsize=78125 / crf_max=0.0 / nal_hrd=none / filler=0 / ip_ratio=1.30 / pb_ratio=1.20 / aq=3:0.80
Language           : English
Default            : Yes
Forced           : No
Color range          : Limited
Color primaries        : BT.709
Matrix coefficients        : BT.709

Audio
ID             : 2
Format           : DTS
Format/Info          : Digital Theater Systems
Codec ID           : A_DTS
Duration           : 1 h 39 min
Bit rate mode          : Constant
Bit rate           : 1 509 kb/s
Channel(s)           : 6 channels
Channel layout         : C L R Ls Rs LFE
Sampling rate          : 48.0 kHz
Frame rate           : 93.750 FPS (512 SPF)
Bit depth          : 24 bits
Compression mode         : Lossy
Stream size          : 1.05 GiB (20%)
Language           : English
Default            : Yes
Forced           : No

Text #1
ID             : 3
Format           : UTF-8
Codec ID           : S_TEXT/UTF8
Codec ID/Info          : UTF-8 Plain Text
Duration           : 1 h 28 min
Bit rate           : 26 b/s
Count of elements        : 811
Stream size          : 17.5 KiB (0%)
Language           : English
Default            : Yes
Forced           : No

Text #2
ID             : 4
Format           : UTF-8
Codec ID           : S_TEXT/UTF8
Codec ID/Info          : UTF-8 Plain Text
Duration           : 1 h 36 min
Bit rate           : 28 b/s
Count of elements        : 968
Stream size          : 20.0 KiB (0%)
Title            : SDH
Language           : English
Default            : No
Forced           : No

Menu
00:00:00.000         : en:Chapter 01
00:09:30.570         : en:Chapter 02
00:20:02.201         : en:Chapter 03
00:27:28.647         : en:Chapter 04
00:34:36.074         : en:Chapter 05
00:54:29.266         : en:Chapter 06
01:07:19.035         : en:Chapter 07
01:18:16.692         : en:Chapter 08
01:27:53.268         : en:Chapter 09
01:33:08.583         : en:Chapter 10

[/url]

[/url]

[/url]




                                                                  
                                                                                                                                                                                                                                                                                 
fd4b1f20429bc32cab8232ab05b7275f.torrent (13.55 KB, 下载次数: 0)

回复

使用道具 举报

您需要登录后才可以回帖 登录 | 立即注册

本版积分规则

bt天堂

本网站所有资源来自网络,如无意中侵犯了您的权益,请发邮件至 [email protected],立即清除相关链接

GMT+8, 2022-12-10 05:49 , Processed in 0.059299 second(s), 33 queries .

Powered by Discuz! X3.2

© 2001-2013 Comsenz Inc.

快速回复 返回顶部 返回列表