请选择 进入手机版 | 继续访问电脑版

bt天堂

 找回密码
 立即注册

寂静岭2/3D 鬼魅山房2 Silent.Hill.Revelation.2012.3D.1080p.BluRay.x264-GUACAMOLE ...

[复制链接]

admin 发表于 2021-12-4 17:15:04 | 显示全部楼层 |阅读模式
寂静岭2/3D 鬼魅山房2 Silent.Hill.Revelation.2012.3D.1080p.BluRay.x264-GUACAMOLE 7.73GB                                                                                                                                                                              -->
帖子完整标题:寂静岭2/3D 鬼魅山房2 Silent.Hill.Revelation.2012.3D.1080p.BluRay.x264-GUACAMOLE 7.73GB




◎译  名 寂静岭2 / 3D 鬼魅山房2(港) / Silent Hill 2 / 寂静岭2:启示 / 寂静岭:揭示 / 沉默之丘2:启示录(台)
◎片  名 Silent Hill: Revelation 3D
◎年  代 2012
◎产  地 法国 / 美国 / 加拿大
◎类  别 悬疑 / 惊悚 / 恐怖
◎语  言 英语
◎上映日期 2012-10-26(美国)
◎IMDb评分5.0/10 from 59348 users

◎豆瓣评分 5.7/10 from 57223 users
◎ 
◎片  长 94分钟
◎导  演 迈克尔·巴塞特 Michael J. Bassett
◎编  剧 迈克尔·巴塞特 Michael J. Bassett
◎主  演 肖恩·宾 Sean Bean
     凯瑞-安·莫斯 Carrie-Anne Moss
     马尔科姆·麦克道威尔 Malcolm McDowell
     阿德莱德·克莱蒙丝Adelaide Clemens
     基特·哈灵顿 Kit Harington
     马丁·唐文 Martin Donovan


◎标  签 恐怖 | 惊悚 | 美国 | 游戏改编 | 宗教 | 悬疑 | 血腥 | 心理

◎简  介

  《寂静岭2》改编自热爆电子游戏《Silent Hill 3》。
  Heather Mason(阿德莱德·克莱蒙丝 Adelaide Clemens 饰)和父亲Harry Mason(肖恩·宾 Sean Bean 饰)在外面逃命已经多年,但她却总不明白那些对他们造成危险的东西是什么。多年来受神秘力量骚扰,更长期被毛骨悚然的恶梦弄得心绪不宁。18岁生日当日,她发现自己被偷偷跟踪,随之而来的事故也让父亲离奇失踪,只遗下一个神秘的讯息。在那场事件中,她发现自己的身份是伪造的,而自己对从前的回忆也成为了梦魇。这一切奇怪的梦和事,引领着她到达那个既陌生又可怕的国度——寂静岭。
  踏进这里后,Heather发现很多惊人的真相,路上等待她的是恐惧的威吓,而她的身世之谜也慢慢被揭开。各种可怕的生物在这个地方出现,更有人告诉她她就是那个命中注定要来杀光所有梦魇和怪兽的人……
Video
ID             : 1
Format           : AVC
Format/Info          : Advanced Video Codec
Format profile         :
MultiView_Count        : 2
MultiView_Layout         : Side by Side (left eye first)
Format settings        : CABAC / 5 Ref Frames
Format settings, CABAC       : Yes
Format settings, Reference frames  : 5 frames
Codec ID           : V_MPEG4/ISO/AVC
Duration           : 1 h 34 min
Bit rate           : 7 808 kb/s
Width            : 1 920 pixels
Height           : 800 pixels
Display aspect ratio       : 2.40:1
Frame rate mode        : Constant
Frame rate           : 23.976 (24000/1001/189150) FPS
Color space          : YUV
Chroma subsampling       : 4:2:0
Bit depth          : 8 bits
Scan type          : Progressive
Bits/(Pixel*Frame)       : 0.212
Stream size          : 5.17 GiB (67%)
Writing library        : x264 core 161 r3018 db0d417
Encoding settings        : cabac=1 / ref=5 / deblock=1:-3:-3 / analyse=0x3:0x133 / me=umh / subme=9 / psy=1 / psy_rd=1.00:0.00 / mixed_ref=1 / me_range=32 / chroma_me=1 / trellis=2 / 8x8dct=1 / cqm=0 / deadzone=21,11 / fast_pskip=0 / chroma_qp_offset=-2 / threads=24 / lookahead_threads=2 / sliced_threads=0 / nr=0 / decimate=1 / interlaced=0 / bluray_compat=0 / constrained_intra=0 / bframes=3 / b_pyramid=2 / b_adapt=2 / b_bias=0 / direct=3 / weightb=1 / open_gop=0 / weightp=2 / keyint=250 / keyint_min=23 / scenecut=40 / intra_refresh=0 / rc_lookahead=60 / rc=crf / mbtree=1 / crf=17.0 / qcomp=0.60 / qpmin=0 / qpmax=69 / qpstep=4 / ip_ratio=1.40 / aq=3:0.80
Language           : English
Default            : Yes
Forced           : No
Color range          : Limited
Color primaries        : BT.709
Transfer characteristics     : BT.709
Matrix coefficients        : BT.709

Audio
ID             : 2
Format           : DTS XLL
Format/Info          : Digital Theater Systems
Commercial name        : DTS-HD Master Audio
Codec ID           : A_DTS
Duration           : 1 h 34 min
Bit rate mode          : Variable
Bit rate           : 3 845 kb/s
Channel(s)           : 6 channels
Channel layout         : C L R Ls Rs LFE
Sampling rate          : 48.0 kHz
Frame rate           : 93.750 FPS (512 SPF)
Bit depth          : 24 bits
Compression mode         : Lossless
Stream size          : 2.54 GiB (33%)
Language           : English
Default            : Yes
Forced           : No

Text #1
ID             : 3
Format           : PGS
Muxing mode          : zlib
Codec ID           : S_HDMV/PGS
Codec ID/Info          : Picture based subtitle format used on BDs/HD-DVDs
Duration           : 1 h 26 min
Bit rate           : 39.5 kb/s
Count of elements        : 1766
Stream size          : 24.4 MiB (0%)
Title            : SDH
Language           : English
Default            : No
Forced           : No

Text #2
ID             : 4
Format           : PGS
Muxing mode          : zlib
Codec ID           : S_HDMV/PGS
Codec ID/Info          : Picture based subtitle format used on BDs/HD-DVDs
Duration           : 1 h 24 min
Bit rate           : 36.6 kb/s
Count of elements        : 1520
Stream size          : 22.1 MiB (0%)
Title            : SDH
Language           : Spanish
Default            : No
Forced           : No

Menu
00:00:00.000         : :Chapter 01
00:04:40.488         : :Chapter 02
00:11:37.530         : :Chapter 03
00:17:08.610         : :Chapter 04
00:21:28.495         : :Chapter 05
00:24:03.483         : :Chapter 06
00:27:58.927         : :Chapter 07
00:31:27.010         : :Chapter 08
00:35:23.079         : :Chapter 09
00:40:49.113         : :Chapter 10
00:46:49.473         : :Chapter 11
00:50:34.281         : :Chapter 12
00:53:55.023         : :Chapter 13
00:57:46.671         : :Chapter 14
01:03:51.828         : :Chapter 15
01:06:29.443         : :Chapter 16
01:11:28.284         : :Chapter 17
01:16:34.298         : :Chapter 18
01:22:59.099         : :Chapter 19
01:27:20.068         : :Chapter 20





                                                                  
                                                                                                                                                                                                                                                                                 
8ade58fbd97ce420852337ecc405a24c.zip (40.18 KB, 下载次数: 0)

回复

使用道具 举报

您需要登录后才可以回帖 登录 | 立即注册

本版积分规则

bt天堂

本网站所有资源来自网络,如无意中侵犯了您的权益,请发邮件至 [email protected],立即清除相关链接

GMT+8, 2022-12-10 06:03 , Processed in 0.060115 second(s), 33 queries .

Powered by Discuz! X3.2

© 2001-2013 Comsenz Inc.

快速回复 返回顶部 返回列表