请选择 进入手机版 | 继续访问电脑版

bt天堂

 找回密码
 立即注册

大脚丫家族/大脚丫家族之森林特攻队 Bigfoot.Family.2020.3D.1080p.BluRay.x264-SURCO ...

[复制链接]

admin 发表于 2021-12-4 17:15:04 | 显示全部楼层 |阅读模式
大脚丫家族/大脚丫家族之森林特攻队 Bigfoot.Family.2020.3D.1080p.BluRay.x264-SURCODE 9.83GB                                                                                                                                                                              -->
帖子完整标题:大脚丫家族/大脚丫家族之森林特攻队 Bigfoot.Family.2020.3D.1080p.BluRay.x264-SURCODE 9.83GB



[/url]

◎译  名 大脚丫家族/大脚丫家族之森林特攻队/森林特攻队:大脚丫家族(台)
◎片  名 Bigfoot Family
◎年  代 2020
◎产  地 比利时,法国
◎类  别 动画 / 家庭
◎语  言 法语
◎上映日期 2020-08-05(比利时)
◎IMDb评分6/10 from 734 users

◎豆瓣评分 6.3/10 from 74 users
◎ 
◎片  长 89分钟
◎导  演 杰里米·德格鲁森 Jeremy Degruson / 本·斯塔森 Ben Stassen
◎编  剧 鲍勃·巴伦 Bob Barlen / 卡尔·布伦克尔 Cal Brunker

◎标  签 动画 | 2020 | 法国 | 比利时 | 喜剧 | 动画电影 | 剧情 | 剧场动画

◎简  介

  人类持续破坏环境,是时候动物们该站出来捍卫生存权益…
  
  
  
  看似平凡的亚当,和雪丽(母亲)、大脚怪(父亲)以及他们的朋友伟波(大灰熊)、蒂娜(松鼠)、崔波(浣熊)一家人,这个非凡的大家庭一起在森林里定居。没想到随着大脚怪父亲越来越有名,父亲也利用名气尝试改变世界。某天动保团体与父亲联系,打算一起阻止石油公司开发并污染动物的生存环境,没想到父亲在一次追查真相的过程中竟然莫名失踪了!亚当和他的动物家人们,决定联手找出大脚怪父亲的下落,同时透过社群媒体试图揭发石油公司的邪恶阴谋,他们一家人还有机会再次团聚吗?
Video
ID             : 1
Format           : AVC
Format/Info          : Advanced Video Codec
Format profile         :
Format settings        : CABAC / 4 Ref Frames
Format settings, CABAC       : Yes
Format settings, Reference frames  : 4 frames
Codec ID           : V_MPEG4/ISO/AVC
Duration           : 1 h 28 min
Bit rate           : 11.9 Mb/s
Width            : 1 920 pixels
Height           : 1 080 pixels
Display aspect ratio       : 16:9
Frame rate mode        : Constant
Frame rate           : 23.976 FPS
Color space          : YUV
Chroma subsampling       : 4:2:0
Bit depth          : 8 bits
Scan type          : Progressive
Bits/(Pixel*Frame)       : 0.240
Stream size          : 7.39 GiB (75%)
Writing library        : x264 core 161 r3043 59c0609
Encoding settings        : cabac=1 / ref=4 / deblock=1:-3:-3 / analyse=0x3:0x133 / me=umh / subme=9 / psy=1 / psy_rd=1.00:0.00 / mixed_ref=1 / me_range=16 / chroma_me=1 / trellis=2 / 8x8dct=1 / cqm=0 / deadzone=21,11 / fast_pskip=0 / chroma_qp_offset=-2 / threads=34 / lookahead_threads=2 / sliced_threads=0 / nr=0 / decimate=1 / interlaced=0 / bluray_compat=0 / constrained_intra=0 / bframes=3 / b_pyramid=2 / b_adapt=2 / b_bias=0 / direct=3 / weightb=1 / open_gop=0 / weightp=2 / keyint=250 / keyint_min=23 / scenecut=40 / intra_refresh=0 / rc_lookahead=60 / rc=crf / mbtree=1 / crf=17.0 / qcomp=0.60 / qpmin=0 / qpmax=69 / qpstep=4 / ip_ratio=1.40 / aq=1:1.00
Language           : English
Default            : Yes
Forced           : No

Audio
ID             : 2
Format           : DTS XLL
Format/Info          : Digital Theater Systems
Commercial name        : DTS-HD Master Audio
Codec ID           : A_DTS
Duration           : 1 h 28 min
Bit rate mode          : Variable
Bit rate           : 3 847 kb/s
Channel(s)           : 6 channels
Channel layout         : C L R Ls Rs LFE
Sampling rate          : 48.0 kHz
Frame rate           : 93.750 FPS (512 SPF)
Bit depth          : 24 bits
Compression mode         : Lossless
Stream size          : 2.38 GiB (24%)
Language           : English
Default            : Yes
Forced           : No

Text #1
ID             : 3
Format           : PGS
Muxing mode          : zlib
Codec ID           : S_HDMV/PGS
Codec ID/Info          : Picture based subtitle format used on BDs/HD-DVDs
Duration           : 1 h 20 min
Bit rate           : 113 kb/s
Count of elements        : 1600
Stream size          : 65.2 MiB (1%)
Language           : Dutch
Default            : No
Forced           : No

Text #2
ID             : 4
Format           : PGS
Muxing mode          : zlib
Codec ID           : S_HDMV/PGS
Codec ID/Info          : Picture based subtitle format used on BDs/HD-DVDs
Duration           : 1 h 20 min
Bit rate           : 110 kb/s
Count of elements        : 1902
Stream size          : 63.7 MiB (1%)
Language           : French
Default            : No
Forced           : No

Menu
00:00:00.000         : en:Chapter 01
00:08:55.160         : en:Chapter 02
00:13:26.431         : en:Chapter 03
00:21:31.665         : en:Chapter 04
00:29:40.654         : en:Chapter 05
00:37:13.273         : en:Chapter 06
00:45:31.187         : en:Chapter 07
00:52:21.055         : en:Chapter 08
01:00:03.642         : en:Chapter 09
01:05:57.495         : en:Chapter 10
01:16:18.866         : en:Chapter 11
01:23:50.901         : en:Chapter 12

[/url]



                                                                  
                                                                                                                                                                                                                                                                                 
8bef9a093ccefd2a9ec1f43b58ddfacd.zip (49.85 KB, 下载次数: 0)

回复

使用道具 举报

您需要登录后才可以回帖 登录 | 立即注册

本版积分规则

bt天堂

本网站所有资源来自网络,如无意中侵犯了您的权益,请发邮件至 [email protected],立即清除相关链接

GMT+8, 2022-12-10 06:02 , Processed in 0.061863 second(s), 33 queries .

Powered by Discuz! X3.2

© 2001-2013 Comsenz Inc.

快速回复 返回顶部 返回列表