请选择 进入手机版 | 继续访问电脑版

bt天堂

 找回密码
 立即注册

Wonder.Woman.1984.2020.IMAX.1080p.3D.BluRay.Half-SBS.x264.DTS-HD.MA.7.1-FGT 23.

[复制链接]

admin 发表于 2021-12-4 17:15:04 | 显示全部楼层 |阅读模式
Wonder.Woman.1984.2020.IMAX.1080p.3D.BluRay.Half-SBS.x264.DTS-HD.MA.7.1-FGT 23.                                                                                                                                                                              -->
帖子完整标题: Wonder.Woman.1984.2020.IMAX.1080p.3D.BluRay.Half-SBS.x264.DTS-HD.MA.7.1-FGT 23.18GB






Video
ID             : 1
Format           : AVC
Format/Info          : Advanced Video Codec
Format profile         :
Format settings        : CABAC / 3 Ref Frames
Format settings, CABAC       : Yes
Format settings, Reference frames  : 3 frames
Codec ID           : V_MPEG4/ISO/AVC
Duration           : 2 h 31 min
Bit rate           : 13.6 Mb/s
Nominal bit rate         : 15.5 Mb/s
Width            : 1 920 pixels
Height           : 1 080 pixels
Display aspect ratio       : 16:9
Frame rate mode        : Constant
Frame rate           : 23.976 (24000/1001/189150) FPS
Color space          : YUV
Chroma subsampling       : 4:2:0
Bit depth          : 8 bits
Scan type          : Progressive
Bits/(Pixel*Frame)       : 0.273
Stream size          : 14.3 GiB (62%)
Writing library        : x264 core 148
Encoding settings        : cabac=1 / ref=3 / deblock=1:-1:-1 / analyse=0x3:0 / me=hex / subme=5 / psy=1 / psy_rd=1.00:0.00 / mixed_ref=0 / me_range=16 / chroma_me=1 / trellis=1 / 8x8dct=1 / cqm=0 / deadzone=21,11 / fast_pskip=0 / chroma_qp_offset=0 / threads=48 / lookahead_threads=8 / sliced_threads=0 / nr=0 / decimate=1 / interlaced=0 / bluray_compat=0 / constrained_intra=0 / bframes=2 / b_pyramid=0 / b_adapt=1 / b_bias=0 / direct=1 / weightb=0 / open_gop=0 / weightp=0 / keyint=24 / keyint_min=2 / scenecut=40 / intra_refresh=0 / rc_lookahead=6 / rc=cbr / mbtree=0 / bitrate=15500 / ratetol=1.0 / qcomp=0.60 / qpmin=0 / qpmax=69 / qpstep=4 / vbv_maxrate=15500 / vbv_bufsize=15500 / nal_hrd=none / filler=0 / ip_ratio=1.40 / pb_ratio=1.30 / aq=1:1.00
Default            : Yes
Forced           : No
Color range          : Limited
Color primaries        : BT.709
Transfer characteristics     : BT.709
Matrix coefficients        : BT.709

Audio #1
ID             : 2
Format           : DTS XLL
Format/Info          : Digital Theater Systems
Commercial name        : DTS-HD Master Audio
Codec ID           : A_DTS
Duration           : 2 h 31 min
Bit rate mode          : Variable
Bit rate           : 4 293 kb/s
Channel(s)           : 8 channels
Channel layout         : C L R LFE Lb Rb Lss Rss
Sampling rate          : 48.0 kHz
Frame rate           : 93.750 FPS (512 SPF)
Bit depth          : 24 bits
Compression mode         : Lossless
Stream size          : 4.53 GiB (20%)
Title            : DTS-HD MA 7.1
Language           : English
Default            : Yes
Forced           : No

Audio #2
ID             : 3
Format           : DTS XLL
Format/Info          : Digital Theater Systems
Commercial name        : DTS-HD Master Audio
Codec ID           : A_DTS
Duration           : 2 h 31 min
Bit rate mode          : Variable
Bit rate           : 2 241 kb/s
Channel(s)           : 6 channels
Channel layout         : C L R Ls Rs LFE
Sampling rate          : 48.0 kHz
Frame rate           : 93.750 FPS (512 SPF)
Bit depth          : 16 bits
Compression mode         : Lossless
Stream size          : 2.37 GiB (10%)
Title            : DTS-HD MA 5.1
Language           : French
Default            : No
Forced           : No

Audio #3
ID             : 4
Format           : AC-3
Format/Info          : Audio Coding 3
Commercial name        : Dolby Digital
Codec ID           : A_AC3
Duration           : 2 h 31 min
Bit rate mode          : Constant
Bit rate           : 448 kb/s
Channel(s)           : 6 channels
Channel layout         : L R C LFE Ls Rs
Sampling rate          : 48.0 kHz
Frame rate           : 31.250 FPS (1536 SPF)
Compression mode         : Lossy
Stream size          : 484 MiB (2%)
Title            : DD 5.1
Language           : Chinese
Service kind         : Complete Main
Default            : No
Forced           : No

Audio #4
ID             : 5
Format           : AC-3
Format/Info          : Audio Coding 3
Commercial name        : Dolby Digital
Codec ID           : A_AC3
Duration           : 2 h 31 min
Bit rate mode          : Constant
Bit rate           : 448 kb/s
Channel(s)           : 6 channels
Channel layout         : L R C LFE Ls Rs
Sampling rate          : 48.0 kHz
Frame rate           : 31.250 FPS (1536 SPF)
Compression mode         : Lossy
Stream size          : 484 MiB (2%)
Title            : DD 5.1
Language           : Hindi
Service kind         : Complete Main
Default            : No
Forced           : No

Audio #5
ID             : 6
Format           : AC-3
Format/Info          : Audio Coding 3
Commercial name        : Dolby Digital
Codec ID           : A_AC3
Duration           : 2 h 31 min
Bit rate mode          : Constant
Bit rate           : 448 kb/s
Channel(s)           : 6 channels
Channel layout         : L R C LFE Ls Rs
Sampling rate          : 48.0 kHz
Frame rate           : 31.250 FPS (1536 SPF)
Compression mode         : Lossy
Stream size          : 484 MiB (2%)
Title            : DD 5.1
Language           : Tamil
Service kind         : Complete Main
Default            : No
Forced           : No

Audio #6
ID             : 7
Format           : AC-3
Format/Info          : Audio Coding 3
Commercial name        : Dolby Digital
Codec ID           : A_AC3
Duration           : 2 h 31 min
Bit rate mode          : Constant
Bit rate           : 448 kb/s
Channel(s)           : 6 channels
Channel layout         : L R C LFE Ls Rs
Sampling rate          : 48.0 kHz
Frame rate           : 31.250 FPS (1536 SPF)
Compression mode         : Lossy
Stream size          : 484 MiB (2%)
Title            : DD 5.1
Language           : Telugu
Service kind         : Complete Main
Default            : No
Forced           : No

Text #1
ID             : 8
Format           : PGS
Muxing mode          : zlib
Codec ID           : S_HDMV/PGS
Codec ID/Info          : Picture based subtitle format used on BDs/HD-DVDs
Duration           : 2 h 26 min
Bit rate           : 45.6 kb/s
Count of elements        : 4360
Stream size          : 48.0 MiB (0%)
Language           : English
Default            : Yes
Forced           : No

Text #2
ID             : 9
Format           : PGS
Muxing mode          : zlib
Codec ID           : S_HDMV/PGS
Codec ID/Info          : Picture based subtitle format used on BDs/HD-DVDs
Duration           : 2 h 30 min
Bit rate           : 30.8 kb/s
Count of elements        : 3380
Stream size          : 33.1 MiB (0%)
Language           : French
Default            : No
Forced           : No

Text #3
ID             : 10
Format           : PGS
Muxing mode          : zlib
Codec ID           : S_HDMV/PGS
Codec ID/Info          : Picture based subtitle format used on BDs/HD-DVDs
Duration           : 2 h 30 min
Bit rate           : 31.0 kb/s
Count of elements        : 2520
Stream size          : 33.4 MiB (0%)
Language           : Dutch
Default            : No
Forced           : No

Text #4
ID             : 11
Format           : PGS
Muxing mode          : zlib
Codec ID           : S_HDMV/PGS
Codec ID/Info          : Picture based subtitle format used on BDs/HD-DVDs
Duration           : 2 h 30 min
Bit rate           : 38.0 kb/s
Count of elements        : 3666
Stream size          : 41.0 MiB (0%)
Language           : Chinese
Default            : No
Forced           : No

Text #5
ID             : 12
Format           : PGS
Muxing mode          : zlib
Codec ID           : S_HDMV/PGS
Codec ID/Info          : Picture based subtitle format used on BDs/HD-DVDs
Duration           : 1 h 59 min
Bit rate           : 376 b/s
Count of elements        : 32
Stream size          : 331 KiB (0%)
Language           : French
Default            : No
Forced           : No

Text #6
ID             : 13
Format           : PGS
Muxing mode          : zlib
Codec ID           : S_HDMV/PGS
Codec ID/Info          : Picture based subtitle format used on BDs/HD-DVDs
Duration           : 2 h 5 min
Bit rate           : 704 b/s
Count of elements        : 62
Stream size          : 650 KiB (0%)
Language           : Chinese
Default            : No
Forced           : No

Text #7
ID             : 14
Format           : PGS
Muxing mode          : zlib
Codec ID           : S_HDMV/PGS
Codec ID/Info          : Picture based subtitle format used on BDs/HD-DVDs
Duration           : 2 h 15 min
Bit rate           : 514 b/s
Count of elements        : 64
Stream size          : 511 KiB (0%)
Language           : Hindi
Default            : No
Forced           : No

Text #8
ID             : 15
Format           : PGS
Muxing mode          : zlib
Codec ID           : S_HDMV/PGS
Codec ID/Info          : Picture based subtitle format used on BDs/HD-DVDs
Duration           : 1 h 59 min
Bit rate           : 639 b/s
Count of elements        : 44
Stream size          : 561 KiB (0%)
Language           : Tamil
Default            : No
Forced           : No

Text #9
ID             : 16
Format           : PGS
Muxing mode          : zlib
Codec ID           : S_HDMV/PGS
Codec ID/Info          : Picture based subtitle format used on BDs/HD-DVDs
Duration           : 1 h 59 min
Bit rate           : 505 b/s
Count of elements        : 44
Stream size          : 444 KiB (0%)
Language           : Telugu
Default            : No
Forced           : No

Menu
00:00:00.000         : en:Chapter 01
00:03:16.988         : en:Chapter 02
00:11:18.302         : en:Chapter 03
00:19:52.900         : en:Chapter 04
00:29:11.040         : en:Chapter 05
00:35:24.747         : en:Chapter 06
00:41:06.797         : en:Chapter 07
00:50:23.937         : en:Chapter 08
00:57:08.466         : en:Chapter 09
01:06:54.010         : en:Chapter 10
01:16:48.812         : en:Chapter 11
01:20:00.962         : en:Chapter 12
01:28:58.207         : en:Chapter 13
01:37:30.970         : en:Chapter 14
01:46:59.955         : en:Chapter 15
01:54:54.429         : en:Chapter 16
02:00:30.932         : en:Chapter 17
02:05:29.063         : en:Chapter 18
02:11:21.665         : en:Chapter 19
02:20:21.830         : en:Chapter 20
02:25:35.435         : en:Chapter 21

[/url]

[/url]

[/url]






                                                                  
                                                                                                                                                                                                                                                                                 
ce5f018527565da080c6f1f3d7270db6.zip (58.69 KB, 下载次数: 0)

回复

使用道具 举报

您需要登录后才可以回帖 登录 | 立即注册

本版积分规则

bt天堂

本网站所有资源来自网络,如无意中侵犯了您的权益,请发邮件至 [email protected],立即清除相关链接

GMT+8, 2022-12-10 07:04 , Processed in 0.061113 second(s), 33 queries .

Powered by Discuz! X3.2

© 2001-2013 Comsenz Inc.

快速回复 返回顶部 返回列表