请选择 进入手机版 | 继续访问电脑版

bt天堂

 找回密码
 立即注册

哭泣的男人 Cry.Macho.2021.1080p.BluRay.x264.DTS-MT 7.95GB

[复制链接]

admin 发表于 2021-12-4 19:31:55 | 显示全部楼层 |阅读模式
哭泣的男人 Cry.Macho.2021.1080p.BluRay.x264.DTS-MT 7.95GB                                                                                                                                                                              -->
帖子完整标题:哭泣的男人 Cry.Macho.2021.1080p.BluRay.x264.DTS-MT 7.95GB





◎译  名 哭泣的男人
◎片  名 Cry Macho
◎年  代 2021
◎产  地 美国
◎类  别 剧情 / 惊悚 / 西部
◎语  言 英语
◎上映日期 2021-09-17(美国/美国网络)
◎豆瓣评分 6.5/10 from 2854 users
◎ 
◎片  长 104分钟
◎导  演 克林特·伊斯特伍德 Clint Eastwood
◎编  剧 N·理查德·纳什 N. Richard Nash / 尼克·申克 Nick Schenk
◎主  演 克林特·伊斯特伍德 Clint Eastwood
     德怀特·尤科姆 Dwight Yoakam
     丹尼尔V·格拉劳 Daniel V. Graulau
     安珀·林恩·阿什利 Amber Lynn Ashley
     布雷特尼·拉特利奇 Brytnee Ratledge
     亚历山德拉·鲁迪 Alexandra Ruddy
     萨罗·索利斯 Saro Solis
     霍拉西欧·加西亚·罗哈斯 Horacio Garcia Rojas
     伊万·埃尔南德斯 Ivan Hernandez
     费兰达·乌雷霍拉 Fernanda Urrejola
     娜塔莉娅·特拉文 Natalia Traven
     马尔科·罗德里格斯 Marco Rodríguez
     保罗·阿拉约 Paul Alayo
     吉安尼·卡尔切蒂 Gianni Calchetti

◎标  签 美国 | 西部 | 公路 | 剧情 | 东木大爷 | 2021 | 电影 | 惊悚

◎简  介

  影片讲述了一名驯马师为了养老金和自己破产的牧场老板达成协议,从老板富有的墨西哥前妻那里绑架老板11岁的儿子以索要赎金。然而老板的前妻正为这个不良少年头疼,巴不得甩掉这个包袱,事情朝着意料之外的方向发展……
Video
ID             : 1
Format           : AVC
Format/Info          : Advanced Video Codec
Format profile         :
Format settings        : CABAC / 5 Ref Frames
Format settings, CABAC       : Yes
Format settings, Reference frames  : 5 frames
Codec ID           : V_MPEG4/ISO/AVC
Duration           : 1 h 43 min
Bit rate           : 9 443 kb/s
Width            : 1 920 pixels
Height           : 804 pixels
Display aspect ratio       : 2.40:1
Frame rate mode        : Constant
Frame rate           : 23.976 (24000/1001/189150) FPS
Color space          : YUV
Chroma subsampling       : 4:2:0
Bit depth          : 8 bits
Scan type          : Progressive
Bits/(Pixel*Frame)       : 0.255
Stream size          : 6.85 GiB (86%)
Writing library        : x264 core 157 r2938 2b00a84Mod
Encoding settings        : cabac=1 / ref=5 / deblock=1:-3:-3 / analyse=0x3:0x133 / me=umh / subme=10 / psy=1 / psy_rd=1.05:0.00 / mixed_ref=1 / me_range=32 / chroma_me=1 / trellis=2 / 8x8dct=1 / cqm=0 / deadzone=21,11 / fast_pskip=0 / chroma_qp_offset=-2 / threads=12 / lookahead_threads=2 / sliced_threads=0 / nr=0 / decimate=0 / interlaced=0 / bluray_compat=0 / constrained_intra=0 / bframes=8 / b_pyramid=2 / b_adapt=2 / b_bias=0 / direct=3 / weightb=1 / open_gop=0 / weightp=2 / keyint=250 / keyint_min=24 / scenecut=40 / intra_refresh=0 / rc_lookahead=250 / rc=crf / mbtree=0 / crf=16.8 / qcomp=0.60 / qpmin=0 / qpmax=69 / qpstep=4 / vbv_maxrate=62500 / vbv_bufsize=78125 / crf_max=0.0 / nal_hrd=none / filler=0 / ip_ratio=1.30 / pb_ratio=1.20 / aq=3:0.80
Language           : English
Default            : Yes
Forced           : No
Color range          : Limited
Color primaries        : BT.709
Matrix coefficients        : BT.709

Audio
ID             : 2
Format           : DTS
Format/Info          : Digital Theater Systems
Codec ID           : A_DTS
Duration           : 1 h 43 min
Bit rate mode          : Constant
Bit rate           : 1 509 kb/s
Channel(s)           : 6 channels
Channel layout         : C L R Ls Rs LFE
Sampling rate          : 48.0 kHz
Frame rate           : 93.750 FPS (512 SPF)
Bit depth          : 24 bits
Compression mode         : Lossy
Stream size          : 1.10 GiB (14%)
Language           : English
Default            : Yes
Forced           : No

Text #1
ID             : 3
Format           : UTF-8
Codec ID           : S_TEXT/UTF8
Codec ID/Info          : UTF-8 Plain Text
Duration           : 1 h 42 min
Bit rate           : 42 b/s
Count of elements        : 1312
Stream size          : 31.9 KiB (0%)
Language           : English
Default            : Yes
Forced           : No

Text #2
ID             : 4
Format           : UTF-8
Codec ID           : S_TEXT/UTF8
Codec ID/Info          : UTF-8 Plain Text
Duration           : 1 h 43 min
Bit rate           : 51 b/s
Count of elements        : 1560
Stream size          : 38.9 KiB (0%)
Title            : SDH
Language           : English
Default            : No
Forced           : No

Menu
00:00:00.000         : en:Chapter 01
00:08:56.536         : en:Chapter 02
00:17:18.371         : en:Chapter 03
00:26:02.269         : en:Chapter 04
00:35:10.817         : en:Chapter 05
00:44:05.810         : en:Chapter 06
00:52:52.211         : en:Chapter 07
01:01:32.731         : en:Chapter 08
01:11:27.950         : en:Chapter 09
01:21:11.533         : en:Chapter 10
01:31:12.175         : en:Chapter 11
01:37:38.227         : en:Chapter 12

[/url]

[/url]

[/url]




                                                                  
                                                                                                                                                                                                                                                                                 
724af34398e27482a7da689657df75c2.torrent (20.48 KB, 下载次数: 0)

回复

使用道具 举报

您需要登录后才可以回帖 登录 | 立即注册

本版积分规则

bt天堂

本网站所有资源来自网络,如无意中侵犯了您的权益,请发邮件至 [email protected],立即清除相关链接

GMT+8, 2022-12-10 07:17 , Processed in 0.060020 second(s), 33 queries .

Powered by Discuz! X3.2

© 2001-2013 Comsenz Inc.

快速回复 返回顶部 返回列表