请选择 进入手机版 | 继续访问电脑版

bt天堂

 找回密码
 立即注册

赤裸裸 Naked.1993.REMASTERED.1080p.BluRay.x264-GAZER 17.42GB

[复制链接]

admin 发表于 2021-12-4 19:31:55 | 显示全部楼层 |阅读模式
赤裸裸 Naked.1993.REMASTERED.1080p.BluRay.x264-GAZER 17.42GB                                                                                                                                                                              -->
帖子完整标题:赤裸裸 Naked.1993.REMASTERED.1080p.BluRay.x264-GAZER 17.42GB





◎译  名 赤裸裸/Mike Leigh's Naked/赤裸/赤裸港湾
◎片  名 Naked
◎年  代 1993
◎产  地 英国
◎类  别 剧情
◎语  言 英语
◎上映日期 1993-11-05
◎豆瓣评分 7.9/10 from 4612 users
◎ 
◎片  长 131 分钟
◎导  演 迈克·李 Mike Leigh
◎编  剧 迈克·李 Mike Leigh
◎主  演 大卫·休里斯 David Thewlis
     莱斯利·夏普 Lesley Sharp
     凯特琳·卡特利吉 Katrin Cartlidge
     克莱尔·斯金纳 Claire Skinner
     彼得·怀特 Peter Wight
     艾文·布莱纳 Ewen Bremner
     吉娜·麦基 Gina McKee
     格雷格·克鲁特威尔 Greg Cruttwell
     苏珊·维德勒 Susan Vidler
     黛博拉·麦克拉伦 Deborah MacLaren
     卡罗莱娜·贾梅塔 Carolina Giammetta
     伊丽莎白·贝林顿 Elizabeth Berrington
     彼得·惠特曼 Peter Whitman
     桑德拉·沃 Sandra Voe
     托比·琼斯 Toby Jones

◎标  签 英国 | 迈克·李 || 英国电影 | 1993 | MikeLeigh | Mike_Leigh | 剧情

◎简  介

  冷酷粗暴的流浪汉约翰尼(大卫·休里斯 David Thewlis饰)来到伦敦寻找自己的前任女友路易丝·克兰西(莱丝莉·夏普 Lesley Sharp饰),从一座失业问题严重的工业城市曼彻斯特来到交织在光鲜与黑暗中的大都市伦敦。约翰尼结识了路易丝的室友索菲(凯特琳·卡特利吉 Katrin Cartlidge饰),两人当天就在公寓做了爱。一觉醒来,已经爱上约翰尼的索菲得到的却是约翰尼一副玩世不恭的冷面拒绝。愤世嫉俗的约翰尼不仅仇视女性,也痛恨着自己与他身处的一切。他冷漠地与陌生女人做爱,绝望地与这个世界暴力相向。
  
  本片荣获1993年第46届戛纳电影节主竞赛单元-最佳导演大奖,男主角大卫·休里斯凭借此片荣获最佳男演员奖,本片也同时入围第46届戛纳电影节主竞赛单元-金棕榈奖。

◎获奖情况

  第46届戛纳电影节 ?(1993)
  主竞赛单元金棕榈奖(提名) 迈克·李
  主竞赛单元最佳导演 迈克·李
  主竞赛单元最佳男演员 大卫·休里斯
  
  第47届英国电影学院奖 ?(1994)
  电影奖最佳英国影片(提名) 西蒙·钱宁·威廉姆斯?/?迈克·李
Video
ID             : 1
Format           : AVC
Format/Info          : Advanced Video Codec
Format profile         :
Format settings        : CABAC / 4 Ref Frames
Format settings, CABAC       : Yes
Format settings, Reference frames  : 4 frames
Codec ID           : V_MPEG4/ISO/AVC
Duration           : 2 h 11 min
Bit rate           : 15.6 Mb/s
Width            : 1 794 pixels
Height           : 1 080 pixels
Display aspect ratio       : 5:3
Frame rate mode        : Constant
Frame rate           : 24.000 FPS
Color space          : YUV
Chroma subsampling       : 4:2:0
Bit depth          : 8 bits
Scan type          : Progressive
Bits/(Pixel*Frame)       : 0.336
Stream size          : 14.3 GiB (82%)
Writing library        : x264 core 164 r3065 ae03d92
Encoding settings        : cabac=1 / ref=4 / deblock=1:-3:-3 / analyse=0x3:0x133 / me=umh / subme=10 / psy=1 / psy_rd=1.20:0.00 / mixed_ref=1 / me_range=24 / chroma_me=1 / trellis=2 / 8x8dct=1 / cqm=0 / deadzone=21,11 / fast_pskip=0 / chroma_qp_offset=-2 / threads=24 / lookahead_threads=4 / sliced_threads=0 / nr=0 / decimate=0 / interlaced=0 / bluray_compat=0 / constrained_intra=0 / bframes=8 / b_pyramid=2 / b_adapt=2 / b_bias=0 / direct=3 / weightb=1 / open_gop=0 / weightp=2 / keyint=250 / keyint_min=24 / scenecut=40 / intra_refresh=0 / rc_lookahead=60 / rc=crf / mbtree=1 / crf=22.0 / qcomp=0.60 / qpmin=0 / qpmax=69 / qpstep=4 / ip_ratio=1.40 / aq=3:0.90
Default            : Yes
Forced           : No
Color range          : Limited
Matrix coefficients        : BT.709

Audio #1
ID             : 2
Format           : DTS XLL
Format/Info          : Digital Theater Systems
Commercial name        : DTS-HD Master Audio
Codec ID           : A_DTS
Duration           : 2 h 11 min
Bit rate mode          : Variable
Bit rate           : 3 257 kb/s
Channel(s)           : 6 channels
Channel layout         : C L R Ls Rs LFE
Sampling rate          : 48.0 kHz
Frame rate           : 93.750 FPS (512 SPF)
Bit depth          : 24 bits
Compression mode         : Lossless
Stream size          : 2.99 GiB (17%)
Language           : English
Default            : Yes
Forced           : No

Audio #2
ID             : 3
Format           : AAC LC
Format/Info          : Advanced Audio Codec Low Complexity
Codec ID           : A_AAC-2
Duration           : 2 h 11 min
Bit rate           : 92.6 kb/s
Channel(s)           : 2 channels
Channel layout         : L R
Sampling rate          : 48.0 kHz
Frame rate           : 46.875 FPS (1024 SPF)
Compression mode         : Lossy
Delay relative to video      : 20 ms
Stream size          : 87.0 MiB (0%)
Title            : Commentary
Language           : English
Default            : No
Forced           : No

Text
ID             : 4
Format           : PGS
Muxing mode          : zlib
Codec ID           : S_HDMV/PGS
Codec ID/Info          : Picture based subtitle format used on BDs/HD-DVDs
Duration           : 2 h 7 min
Bit rate           : 39.7 kb/s
Count of elements        : 3454
Stream size          : 36.1 MiB (0%)
Title            : SDH
Language           : English
Default            : No
Forced           : No

Menu
00:00:00.000         : Chapter 01
00:03:41.167         : Chapter 02
00:24:22.833         : Chapter 03
00:39:50.000         : Chapter 04
01:10:27.500         : Chapter 05
01:22:32.458         : Chapter 06
01:47:55.250         : Chapter 07
02:09:12.667         : Chapter 08






                                                                  
                                                                                                                                                                                                                                                                                 
0745862285e793eee0cfd4fb02b2403a.torrent (22.52 KB, 下载次数: 0)

回复

使用道具 举报

您需要登录后才可以回帖 登录 | 立即注册

本版积分规则

bt天堂

本网站所有资源来自网络,如无意中侵犯了您的权益,请发邮件至 [email protected],立即清除相关链接

GMT+8, 2022-12-10 06:05 , Processed in 0.060322 second(s), 33 queries .

Powered by Discuz! X3.2

© 2001-2013 Comsenz Inc.

快速回复 返回顶部 返回列表