请选择 进入手机版 | 继续访问电脑版

bt天堂

 找回密码
 立即注册

警醒 Jolt.2021.720p.BluRay.x264-JustWatch 1.81GB

[复制链接]

admin 发表于 2021-12-4 19:47:16 | 显示全部楼层 |阅读模式
警醒 Jolt.2021.720p.BluRay.x264-JustWatch 1.81GB                                                                                                                                                                              -->
帖子完整标题:警醒 Jolt.2021.720p.BluRay.x264-JustWatch 1.81GB





◎译  名 警醒
◎片  名 Jolt
◎年  代 2021
◎产  地 美国
◎类  别 动作 / 惊悚
◎语  言 英语
◎上映日期 2021-07-23(美国)
◎豆瓣评分 5.6/10 from 2291 users
◎ 
◎片  长 91分钟
◎导  演 谭雅·维克斯勒 Tanya Wexler
◎主  演 凯特·贝金赛尔 Kate Beckinsale
     斯坦利·图齐 Stanley Tucci
     鲍比·坎纳瓦尔 Bobby Cannavale
     苏珊·萨兰登 Susan Sarandon
     杰·科特尼 Jai Courtney
     大卫·布拉德利 David Bradley
     拉弗恩·考克斯 Laverne Cox
     克里斯蒂安·布拉辛顿 Christian Brassington
     奥利·普费弗 Ori Pfeffer
     康斯坦丁·格雷戈里 Constantine Gregory
     内森·库珀 Nathan Cooper
     哈里·阿尼奇金 Harry Anichkin

◎标  签 动作 | 凯特·贝金赛尔 | 美国 | 2021 | 美国电影 | 喜剧 | 惊悚 | katebeckinsale

◎简  介

  琳迪这个漂亮风趣的女人有一个痛苦的秘密:由于终身的、罕见的神经紊乱,她经历了阵发性的狂怒杀人冲动,解决方式只有用特殊电极装置电自己。在一个害怕她的奇怪状况的世界里,她无法找到爱和联系,最终她信任了一个男人,并爱上了他,却发现第二天他被谋杀了。
  
  琳迪感到心碎和愤怒,她开始了一个复仇值拉满的任务,寻找幕后杀手,与此同时,她也被警察作为这个案子的头号嫌疑犯追捕着。
Video
ID             : 1
Format           : AVC
Format/Info          : Advanced Video Codec
Format profile         :
Format settings        : CABAC / 8 Ref Frames
Format settings, CABAC       : Yes
Format settings, Reference frames  : 8 frames
Codec ID           : V_MPEG4/ISO/AVC
Duration           : 1 h 31 min
Bit rate           : 2 184 kb/s
Width            : 1 280 pixels
Height           : 536 pixels
Display aspect ratio       : 2.40:1
Frame rate mode        : Constant
Frame rate           : 24.000 FPS
Color space          : YUV
Chroma subsampling       : 4:2:0
Bit depth          : 8 bits
Scan type          : Progressive
Bits/(Pixel*Frame)       : 0.133
Stream size          : 1.40 GiB (77%)
Writing library        : x264 core 164 r3075 66a5bc1
Encoding settings        : cabac=1 / ref=8 / deblock=1:-3:-3 / analyse=0x3:0x133 / me=umh / subme=9 / psy=1 / psy_rd=1.00:0.00 / mixed_ref=1 / me_range=16 / chroma_me=1 / trellis=2 / 8x8dct=1 / cqm=0 / deadzone=21,11 / fast_pskip=0 / chroma_qp_offset=-2 / threads=17 / lookahead_threads=1 / sliced_threads=0 / nr=0 / decimate=1 / interlaced=0 / bluray_compat=0 / constrained_intra=0 / bframes=3 / b_pyramid=2 / b_adapt=2 / b_bias=0 / direct=3 / weightb=1 / open_gop=0 / weightp=2 / keyint=250 / keyint_min=24 / scenecut=40 / intra_refresh=0 / rc_lookahead=60 / rc=crf / mbtree=1 / crf=17.0 / qcomp=0.60 / qpmin=0 / qpmax=69 / qpstep=4 / ip_ratio=1.40 / aq=1:1.00
Language           : English
Default            : Yes
Forced           : No

Audio
ID             : 2
Format           : AC-3
Format/Info          : Audio Coding 3
Commercial name        : Dolby Digital
Codec ID           : A_AC3
Duration           : 1 h 31 min
Bit rate mode          : Constant
Bit rate           : 640 kb/s
Channel(s)           : 6 channels
Channel layout         : L R C LFE Ls Rs
Sampling rate          : 48.0 kHz
Frame rate           : 31.250 FPS (1536 SPF)
Compression mode         : Lossy
Stream size          : 419 MiB (23%)
Language           : English
Service kind         : Complete Main
Default            : Yes
Forced           : No

Text #1
ID             : 3
Format           : PGS
Muxing mode          : zlib
Codec ID           : S_HDMV/PGS
Codec ID/Info          : Picture based subtitle format used on BDs/HD-DVDs
Duration           : 1 h 30 min
Bit rate           : 33.0 kb/s
Count of elements        : 2266
Stream size          : 21.4 MiB (1%)
Language           : German
Default            : No
Forced           : No

Text #2
ID             : 4
Format           : PGS
Muxing mode          : zlib
Codec ID           : S_HDMV/PGS
Codec ID/Info          : Picture based subtitle format used on BDs/HD-DVDs
Duration           : 1 h 29 min
Bit rate           : 241 b/s
Count of elements        : 18
Stream size          : 158 KiB (0%)
Title            : ger forced
Language           : German
Default            : No
Forced           : No

Menu
00:00:00.000         : en:Chapter 01
00:11:20.875         : en:Chapter 02
00:22:42.375         : en:Chapter 03
00:32:00.667         : en:Chapter 04
00:44:03.083         : en:Chapter 05
00:51:41.708         : en:Chapter 06
01:03:19.625         : en:Chapter 07
01:15:45.250         : en:Chapter 08
01:25:10.958         : en:Chapter 09






                                                                  
                                                                                                                                                                                                                                                                                 
7f7b106fb46e1dce52fabb92bb6f7e6b.torrent (18.84 KB, 下载次数: 0)

回复

使用道具 举报

您需要登录后才可以回帖 登录 | 立即注册

本版积分规则

bt天堂

本网站所有资源来自网络,如无意中侵犯了您的权益,请发邮件至 [email protected],立即清除相关链接

GMT+8, 2022-12-10 07:20 , Processed in 0.058493 second(s), 33 queries .

Powered by Discuz! X3.2

© 2001-2013 Comsenz Inc.

快速回复 返回顶部 返回列表